<?xml version="1.0" standalone="no"?>
<!DOCTYPE svg PUBLIC "-//W3C//DTD SVG 1.1//EN" "http://www.w3.org/Graphics/SVG/1.1/DTD/svg11.dtd" >
<!--
2019-5-22: Created with FontForge (http://fontforge.org)
-->
<svg xmlns="http://www.w3.org/2000/svg" xmlns:xlink="http://www.w3.org/1999/xlink" version="1.1">
<metadata>
Created by FontForge 20171011 at Wed May 22 06:23:15 2019
 By root

</metadata>
<defs>
<font id="Basic Icon" horiz-adv-x="512" >
  <font-face 
    font-family="Basic Icon"
    font-weight="400"
    font-stretch="normal"
    units-per-em="512"
    panose-1="2 0 5 3 0 0 0 0 0 0"
    ascent="448"
    descent="-64"
    bbox="-0.00138718 -64.0078 513.064 448.001"
    underline-thickness="25.6"
    underline-position="-51.2"
    unicode-range="U+0020-F15C"
  />
    <missing-glyph />
    <glyph glyph-name="space" unicode=" " horiz-adv-x="200" 
 />
    <glyph glyph-name="2065213" unicode="&#xf158;" 
d="M368 -64h-266.668c-32.3633 0 -58.6641 26.3047 -58.6641 58.668v277.332c0 8.83203 7.16797 16 16 16s16 -7.16797 16 -16v-277.332c0 -14.6992 11.9648 -26.668 26.6641 -26.668h266.668c14.6992 0 26.668 11.9688 26.668 26.668v277.332c0 8.83203 7.16797 16 16 16
s16 -7.16797 16 -16v-277.332c0 -32.3633 -26.3047 -58.668 -58.668 -58.668zM368 -64zM453.332 256h-437.332c-8.83203 0 -16 7.16797 -16 16v53.332c0 32.3633 26.3047 58.668 58.668 58.668h352c32.3633 0 58.6641 -26.3047 58.6641 -58.668v-53.332
c0 -8.83203 -7.16797 -16 -16 -16zM32 288h405.332v37.332c0 14.6992 -11.9648 26.668 -26.6641 26.668h-352c-14.6992 0 -26.668 -11.9688 -26.668 -26.668v-37.332zM32 288zM325.332 352c-8.83203 0 -16 7.16797 -16 16v42.668
c0 2.94141 -2.38672 5.33203 -5.33203 5.33203h-138.668c-2.94141 0 -5.33203 -2.39062 -5.33203 -5.33203v-42.668c0 -8.83203 -7.16797 -16 -16 -16s-16 7.16797 -16 16v42.668c0 20.5859 16.7461 37.332 37.332 37.332h138.668c20.5859 0 37.332 -16.7461 37.332 -37.332
v-42.668c0 -8.83203 -7.16797 -16 -16 -16zM325.332 352zM234.668 21.332c-8.83203 0 -16 7.16797 -16 16v138.668c0 8.83203 7.16797 16 16 16s16 -7.16797 16 -16v-138.668c0 -8.83203 -7.16797 -16 -16 -16zM234.668 21.332zM144 21.332c-8.83203 0 -16 7.16797 -16 16
v138.668c0 8.83203 7.16797 16 16 16s16 -7.16797 16 -16v-138.668c0 -8.83203 -7.16797 -16 -16 -16zM144 21.332zM325.332 21.332c-8.83203 0 -16 7.16797 -16 16v138.668c0 8.83203 7.16797 16 16 16s16 -7.16797 16 -16v-138.668c0 -8.83203 -7.16797 -16 -16 -16z
M325.332 21.332z" />
    <glyph glyph-name="2065192" unicode="&#xf143;" 
d="M368 176h-224c-8.83203 0 -16 7.16797 -16 16s7.16797 16 16 16h224c8.83203 0 16 -7.16797 16 -16s-7.16797 -16 -16 -16zM368 176zM256 64c-8.83203 0 -16 7.16797 -16 16v224c0 8.83203 7.16797 16 16 16s16 -7.16797 16 -16v-224c0 -8.83203 -7.16797 -16 -16 -16z
M256 64zM453.332 -64h-394.664c-32.3633 0 -58.668 26.3047 -58.668 58.668v394.664c0 32.3633 26.3047 58.668 58.668 58.668h394.664c32.3633 0 58.668 -26.3047 58.668 -58.668v-394.664c0 -32.3633 -26.3047 -58.668 -58.668 -58.668zM58.668 416
c-14.6992 0 -26.668 -11.9688 -26.668 -26.668v-394.664c0 -14.6992 11.9688 -26.668 26.668 -26.668h394.664c14.6992 0 26.668 11.9688 26.668 26.668v394.664c0 14.6992 -11.9688 26.668 -26.668 26.668h-394.664zM58.668 416z" />
    <glyph glyph-name="2065193" unicode="&#xf144;" 
d="M492.802 172.802h-473.602c-10.5986 0 -19.2002 8.60156 -19.2002 19.2002c0 10.5977 8.60156 19.1992 19.2002 19.1992h473.602c10.5986 0 19.2002 -8.60156 19.2002 -19.1992c0 -10.5986 -8.60156 -19.2002 -19.2002 -19.2002zM492.802 172.802zM255.998 -64.002
c-10.5977 0 -19.1992 8.60156 -19.1992 19.2002v473.602c0 10.5986 8.60156 19.2002 19.1992 19.2002c10.5986 0 19.2002 -8.60156 19.2002 -19.2002v-473.602c0 -10.5986 -8.60156 -19.2002 -19.2002 -19.2002zM255.998 -64.002z" />
    <glyph glyph-name="2065190" unicode="&#xf141;" 
d="M256 -64c-141.164 0 -256 114.836 -256 256s114.836 256 256 256s256 -114.836 256 -256s-114.836 -256 -256 -256zM256 416c-123.52 0 -224 -100.48 -224 -224s100.48 -224 224 -224s224 100.48 224 224s-100.48 224 -224 224zM256 416zM368 176h-224
c-8.83203 0 -16 7.16797 -16 16s7.16797 16 16 16h224c8.83203 0 16 -7.16797 16 -16s-7.16797 -16 -16 -16zM368 176zM256 64c-8.83203 0 -16 7.16797 -16 16v224c0 8.83203 7.16797 16 16 16s16 -7.16797 16 -16v-224c0 -8.83203 -7.16797 -16 -16 -16zM256 64z" />
    <glyph glyph-name="2065191" unicode="&#xf142;" 
d="M273.456 -63.999h-34.9092c-22.4619 0 -40.7305 18.2686 -40.7305 40.7266v157.091h-157.091c-22.457 0 -40.7256 18.2686 -40.7256 40.7256v34.9092c0 22.4619 18.2686 40.7305 40.7256 40.7305h157.091v157.091c0 22.457 18.2686 40.7256 40.7305 40.7256h34.9092
c22.457 0 40.7256 -18.2686 40.7256 -40.7256v-157.091h157.091c22.458 0 40.7266 -18.2686 40.7266 -40.7305v-34.9092c0 -22.457 -18.2686 -40.7256 -40.7266 -40.7256h-157.091v-157.091c0 -22.458 -18.2686 -40.7266 -40.7256 -40.7266zM40.7256 215.274
c-3.20898 0 -5.81641 -2.6084 -5.81641 -5.82129v-34.9092c0 -3.20898 2.60742 -5.81641 5.81641 -5.81641h174.546c9.63477 0 17.4541 -7.82031 17.4541 -17.4551v-174.545c0 -3.21289 2.6084 -5.81738 5.82129 -5.81738h34.9092
c3.20898 0 5.81641 2.60449 5.81641 5.81738v174.545c0 9.63477 7.82031 17.4551 17.4551 17.4551h174.545c3.21289 0 5.81738 2.60742 5.81738 5.81641v34.9092c0 3.21289 -2.60449 5.82129 -5.81738 5.82129h-174.545c-9.63477 0 -17.4551 7.81934 -17.4551 17.4541
v174.546c0 3.20898 -2.60742 5.81641 -5.81641 5.81641h-34.9092c-3.21289 0 -5.82129 -2.60742 -5.82129 -5.81641v-174.546c0 -9.63477 -7.81934 -17.4541 -17.4541 -17.4541h-174.546zM40.7256 215.274z" />
    <glyph glyph-name="2065196" unicode="&#xf147;" 
d="M453.332 64h-42.6641c-8.83203 0 -16 7.16797 -16 16s7.16797 16 16 16h42.6641c14.6992 0 26.668 11.9688 26.668 26.668v138.664c0 14.6992 -11.9688 26.668 -26.668 26.668h-394.664c-14.6992 0 -26.668 -11.9688 -26.668 -26.668v-138.664
c0 -14.6992 11.9688 -26.668 26.668 -26.668h42.6641c8.83203 0 16 -7.16797 16 -16s-7.16797 -16 -16 -16h-42.6641c-32.3633 0 -58.668 26.3047 -58.668 58.668v138.664c0 32.3633 26.3047 58.668 58.668 58.668h394.664c32.3633 0 58.668 -26.3047 58.668 -58.668
v-138.664c0 -32.3633 -26.3047 -58.668 -58.668 -58.668zM453.332 64zM368 -64h-224c-32.3633 0 -58.668 26.3047 -58.668 58.668v160c0 8.83203 7.16797 16 16 16h309.336c8.83203 0 16 -7.16797 16 -16v-160c0 -32.3633 -26.3047 -58.668 -58.668 -58.668z
M117.332 138.668v-144c0 -14.6992 11.9688 -26.668 26.668 -26.668h224c14.6992 0 26.668 11.9688 26.668 26.668v144h-277.336zM117.332 138.668zM346.668 64h-181.336c-8.83203 0 -16 7.16797 -16 16s7.16797 16 16 16h181.336c8.83203 0 16 -7.16797 16 -16
s-7.16797 -16 -16 -16zM346.668 64zM346.668 0h-181.336c-8.83203 0 -16 7.16797 -16 16s7.16797 16 16 16h181.336c8.83203 0 16 -7.16797 16 -16s-7.16797 -16 -16 -16zM346.668 0zM410.668 288c-8.83203 0 -16 7.16797 -16 16v32.1484
c0 12.8203 -4.99219 24.875 -14.0586 33.9414l-31.832 31.832c-8.9375 8.95703 -21.2891 14.0781 -33.9414 14.0781h-170.836c-14.6992 0 -26.668 -11.9688 -26.668 -26.668v-85.332c0 -8.83203 -7.16797 -16 -16 -16s-16 7.16797 -16 16v85.332
c0 32.3633 26.3047 58.668 58.668 58.668h170.836c21.0586 0 41.6875 -8.53516 56.5547 -23.4453l31.832 -31.8281c15.125 -15.125 23.4453 -35.2227 23.4453 -56.5781v-32.1484c0 -8.83203 -7.16797 -16 -16 -16zM410.668 288z" />
    <glyph glyph-name="2065197" unicode="&#xf148;" 
d="M277.332 64c0 -11.7812 -9.55078 -21.332 -21.332 -21.332s-21.332 9.55078 -21.332 21.332s9.55078 21.332 21.332 21.332s21.332 -9.55078 21.332 -21.332zM277.332 64zM256 -64c-141.164 0 -256 114.836 -256 256s114.836 256 256 256s256 -114.836 256 -256
s-114.836 -256 -256 -256zM256 416c-123.52 0 -224 -100.48 -224 -224s100.48 -224 224 -224s224 100.48 224 224s-100.48 224 -224 224zM256 416zM256 133.332c-8.83203 0 -16 7.16797 -16 16v21.5469c0 20.3086 12.8867 38.5078 32.043 45.2695
c25.4922 8.98047 42.625 36.1406 42.625 55.8516c0 32.3633 -26.3047 58.668 -58.668 58.668s-58.668 -26.3047 -58.668 -58.668c0 -8.83203 -7.16797 -16 -16 -16s-16 7.16797 -16 16c0 49.9844 40.6641 90.668 90.668 90.668s90.668 -40.6836 90.668 -90.668
c0 -35.5859 -28.0977 -73.3672 -63.9805 -86.0391c-6.39844 -2.23828 -10.6875 -8.31641 -10.6875 -15.1016v-21.5273c0 -8.83203 -7.16797 -16 -16 -16zM256 133.332z" />
    <glyph glyph-name="2065194" unicode="&#xf145;" 
d="M234.668 277.332c-8.83203 0 -16 7.16797 -16 16v138.668c0 8.83203 7.16797 16 16 16s16 -7.16797 16 -16v-138.668c0 -8.83203 -7.16797 -16 -16 -16zM234.668 277.332zM234.668 -64c-129.387 0 -234.668 105.281 -234.668 234.668
c0 98.2188 62.1016 186.898 154.516 220.691c8.30078 3.00781 17.4727 -1.23828 20.5234 -9.53516c3.03125 -8.30078 -1.23828 -17.4727 -9.53516 -20.5234c-79.8516 -29.1836 -133.504 -105.793 -133.504 -190.633c0 -111.746 90.9219 -202.668 202.668 -202.668
c111.742 0 202.664 90.9219 202.664 202.668c0 84.8398 -53.6523 161.449 -133.48 190.633c-8.30078 3.05078 -12.5664 12.2227 -9.53516 20.5234c3.02734 8.29688 12.1992 12.5664 20.5195 9.53516c92.3945 -33.793 154.496 -122.473 154.496 -220.691
c0 -129.387 -105.277 -234.668 -234.664 -234.668zM234.668 -64z" />
    <glyph glyph-name="2065195" unicode="&#xf146;" 
d="M453.332 64h-42.6641c-8.83203 0 -16 7.16797 -16 16s7.16797 16 16 16h42.6641c14.6992 0 26.668 11.9688 26.668 26.668v138.664c0 14.6992 -11.9688 26.668 -26.668 26.668h-394.664c-14.6992 0 -26.668 -11.9688 -26.668 -26.668v-138.664
c0 -14.6992 11.9688 -26.668 26.668 -26.668h42.6641c8.83203 0 16 -7.16797 16 -16s-7.16797 -16 -16 -16h-42.6641c-32.3633 0 -58.668 26.3047 -58.668 58.668v138.664c0 32.3633 26.3047 58.668 58.668 58.668h394.664c32.3633 0 58.668 -26.3047 58.668 -58.668
v-138.664c0 -32.3633 -26.3047 -58.668 -58.668 -58.668zM453.332 64zM410.668 288c-8.83203 0 -16 7.16797 -16 16v32.1484c0 12.8203 -4.99219 24.875 -14.0586 33.9414l-31.832 31.832c-8.9375 8.95703 -21.2891 14.0781 -33.9414 14.0781h-170.836
c-14.6992 0 -26.668 -11.9688 -26.668 -26.668v-85.332c0 -8.83203 -7.16797 -16 -16 -16s-16 7.16797 -16 16v85.332c0 32.3633 26.3047 58.668 58.668 58.668h170.836c21.0586 0 41.6875 -8.53516 56.5547 -23.4453l31.832 -31.8281
c15.125 -15.125 23.4453 -35.2227 23.4453 -56.5781v-32.1484c0 -8.83203 -7.16797 -16 -16 -16zM410.668 288zM368 -64h-224c-32.3633 0 -58.668 26.3047 -58.668 58.668v160c0 8.83203 7.16797 16 16 16h309.336c8.83203 0 16 -7.16797 16 -16v-160
c0 -32.3633 -26.3047 -58.668 -58.668 -58.668zM117.332 138.668v-144c0 -14.6992 11.9688 -26.668 26.668 -26.668h224c14.6992 0 26.668 11.9688 26.668 26.668v144h-277.336zM117.332 138.668zM119.637 -56.3633c-4.09375 0 -8.19141 1.55859 -11.3047 4.69531
c-6.25391 6.25 -6.25391 16.3828 0 22.6328l72.3594 72.3438c5.99609 5.99219 16.6211 5.99219 22.6367 0l42.0273 -42.0273c6.25 -6.25 6.25 -16.3867 0 -22.6367s-16.3867 -6.25 -22.6367 0l-30.7188 30.7227l-61.0352 -61.0586
c-3.13672 -3.11328 -7.21094 -4.67188 -11.3281 -4.67188zM119.637 -56.3633zM390.848 -57.3672c-4.4375 0 -8.875 1.83594 -12.0312 5.46484l-80.1289 91.582l-52.6289 -60.2461c-5.78125 -6.65625 -15.957 -7.31641 -22.5703 -1.53516
c-6.65625 5.80469 -7.33984 15.9141 -1.51562 22.5703l64.6406 74.0273c3.03125 3.47656 7.42578 5.48438 12.0312 5.48438c4.60938 0 9.00391 -1.98438 12.0312 -5.46484l92.1836 -105.363c5.80078 -6.65625 5.14062 -16.7461 -1.49219 -22.5703
c-3.01172 -2.64453 -6.76562 -3.94922 -10.5195 -3.94922zM390.848 -57.3672z" />
    <glyph glyph-name="2065211" unicode="&#xf156;" 
d="M453.332 -64h-394.664c-32.3633 0 -58.668 26.3047 -58.668 58.668v394.664c0 32.3633 26.3047 58.668 58.668 58.668h394.664c32.3633 0 58.668 -26.3047 58.668 -58.668v-394.664c0 -32.3633 -26.3047 -58.668 -58.668 -58.668zM58.668 416
c-14.6992 0 -26.668 -11.9688 -26.668 -26.668v-394.664c0 -14.6992 11.9688 -26.668 26.668 -26.668h394.664c14.6992 0 26.668 11.9688 26.668 26.668v394.664c0 14.6992 -11.9688 26.668 -26.668 26.668h-394.664zM58.668 416zM325.332 85.332h-138.664
c-20.5898 0 -37.3359 16.7461 -37.3359 37.3359v138.664c0 20.5898 16.7461 37.3359 37.3359 37.3359h138.664c20.5898 0 37.3359 -16.7461 37.3359 -37.3359v-138.664c0 -20.5898 -16.7461 -37.3359 -37.3359 -37.3359zM186.668 266.668
c-2.94531 0 -5.33594 -2.39062 -5.33594 -5.33594v-138.664c0 -2.94531 2.39062 -5.33594 5.33594 -5.33594h138.664c2.94531 0 5.33594 2.39062 5.33594 5.33594v138.664c0 2.94531 -2.39062 5.33594 -5.33594 5.33594h-138.664zM186.668 266.668z" />
    <glyph glyph-name="2065210" unicode="&#xf155;" 
d="M114.818 -44.1016c-5.62109 0 -11.2021 1.75293 -15.9648 5.19727c-8.87305 6.43066 -13.0176 17.4834 -10.6025 28.1484l33.002 145.374l-111.922 98.1533c-8.22754 7.18164 -11.3701 18.5557 -7.99219 28.9619c3.37695 10.3877 12.5674 17.7422 23.4482 18.748
l148.086 13.4443l58.5479 137.014c4.31641 10.0664 14.1484 16.5674 25.0723 16.5674s20.7549 -6.50098 25.0723 -16.5439l58.5479 -137.037l148.062 -13.4443c10.9043 -0.982422 20.0947 -8.36035 23.4717 -18.748c3.37793 -10.3867 0.254883 -21.7803 -7.97266 -28.9619
l-111.921 -98.1338l33.002 -145.369c2.41797 -10.6895 -1.73047 -21.7422 -10.5996 -28.1533c-8.84863 -6.41113 -20.6494 -6.9043 -29.9688 -1.30273l-127.694 76.3086l-127.694 -76.3516c-4.31738 -2.56445 -9.12793 -3.87109 -13.9805 -3.87109zM256.493 68.9941
c4.85352 0 9.65918 -1.30371 13.9805 -3.86719l120.513 -72.0781l-31.1465 137.21c-2.22363 9.76465 1.0918 19.96 8.6377 26.5674l105.679 92.6807l-139.815 12.6963c-10.0664 0.919922 -18.7246 7.24902 -22.6582 16.5244l-55.1895 129.3l-55.2568 -129.319
c-3.88965 -9.21289 -12.5479 -15.542 -22.5908 -16.4619l-139.835 -12.6963l105.675 -92.6807c7.56934 -6.62695 10.8809 -16.8027 8.6377 -26.5908l-31.123 -137.206l120.513 72.0547c4.31738 2.56348 9.12695 3.86719 13.9805 3.86719zM171.741 291.276
c0 0 0 -0.0234375 -0.0234375 -0.0439453zM341.201 291.339l0.0234375 -0.0429688c0 0.0234375 0 0.0234375 -0.0234375 0.0429688zM341.201 291.339z" />
    <glyph glyph-name="2065198" unicode="&#xf149;" 
d="M277.332 64c0 -11.7812 -9.55078 -21.332 -21.332 -21.332s-21.332 9.55078 -21.332 21.332s9.55078 21.332 21.332 21.332s21.332 -9.55078 21.332 -21.332zM277.332 64zM256 133.332c-8.83203 0 -16 7.16797 -16 16v21.5469c0 20.3086 12.8867 38.5078 32.0195 45.2695
c25.5156 8.98047 42.6484 36.1406 42.6484 55.8516c0 32.3633 -26.3047 58.668 -58.668 58.668s-58.668 -26.3047 -58.668 -58.668c0 -8.83203 -7.16797 -16 -16 -16s-16 7.16797 -16 16c0 49.9844 40.6836 90.668 90.668 90.668s90.668 -40.6836 90.668 -90.668
c0 -35.5859 -28.0977 -73.3867 -63.9805 -86.0391c-6.37891 -2.23828 -10.6875 -8.31641 -10.6875 -15.1016v-21.5273c0 -8.83203 -7.16797 -16 -16 -16zM256 133.332zM453.332 -64h-394.664c-32.3633 0 -58.668 26.3047 -58.668 58.668v394.664
c0 32.3633 26.3047 58.668 58.668 58.668h394.664c32.3633 0 58.668 -26.3047 58.668 -58.668v-394.664c0 -32.3633 -26.3047 -58.668 -58.668 -58.668zM58.668 416c-14.6992 0 -26.668 -11.9688 -26.668 -26.668v-394.664c0 -14.6992 11.9688 -26.668 26.668 -26.668
h394.664c14.6992 0 26.668 11.9688 26.668 26.668v394.664c0 14.6992 -11.9688 26.668 -26.668 26.668h-394.664zM58.668 416z" />
    <glyph glyph-name="2065199" unicode="&#xf14a;" 
d="M154.676 234.66h-138.664c-8.83203 0 -16 7.16797 -16 16v138.668c0 8.83203 7.16797 16 16 16s16 -7.16797 16 -16v-122.668h122.664c8.83203 0 16 -7.16797 16 -16s-7.16797 -16 -16 -16zM154.676 234.66zM496.012 -21.3398c-8.83203 0 -16 7.16797 -16 16v122.668
h-122.668c-8.83203 0 -16 7.16797 -16 16s7.16797 16 16 16h138.668c8.83203 0 16 -7.16797 16 -16v-138.668c0 -8.83203 -7.16797 -16 -16 -16zM496.012 -21.3398zM256.012 -64.0039c-141.164 0 -256 114.836 -256 256c0 8.83203 7.16797 16 16 16s16 -7.16797 16 -16
c0 -123.52 100.477 -224 224 -224c105.344 0 199.742 71.168 224.469 169.258c2.17578 8.57422 10.9648 13.7188 19.4336 11.582c8.55469 -2.15234 13.7617 -10.8555 11.6055 -19.4336c-28.2656 -112.062 -135.723 -193.406 -255.508 -193.406zM256.012 -64.0039z
M496.012 175.996c-8.83203 0 -16 7.16797 -16 16c0 123.52 -100.48 224 -224 224c-105.344 0 -199.746 -71.168 -224.473 -169.262c-2.17578 -8.57422 -11.0078 -13.7578 -19.4336 -11.582c-8.57422 2.15625 -13.7578 10.8594 -11.625 19.4336
c28.2852 112.066 135.742 193.41 255.531 193.41c141.16 0 256 -114.84 256 -256c0 -8.83203 -7.16797 -16 -16 -16zM496.012 175.996z" />
    <glyph glyph-name="2065215" unicode="&#xf15a;" 
d="M277.332 64c0 -11.7812 -9.55078 -21.332 -21.332 -21.332s-21.332 9.55078 -21.332 21.332s9.55078 21.332 21.332 21.332s21.332 -9.55078 21.332 -21.332zM277.332 64zM256 128c-8.83203 0 -16 7.16797 -16 16v181.332c0 8.83203 7.16797 16 16 16s16 -7.16797 16 -16
v-181.332c0 -8.83203 -7.16797 -16 -16 -16zM256 128zM256 -64c-141.164 0 -256 114.836 -256 256s114.836 256 256 256s256 -114.836 256 -256s-114.836 -256 -256 -256zM256 416c-123.52 0 -224 -100.48 -224 -224s100.48 -224 224 -224s224 100.48 224 224
s-100.48 224 -224 224zM256 416z" />
    <glyph glyph-name="2065214" unicode="&#xf159;" 
d="M453.325 -64h-394.651c-32.3623 0 -58.666 26.3047 -58.666 58.667v95.9961c0 8.83203 7.16797 16 15.999 16c8.83203 0 16 -7.16797 16 -16v-95.9961c0 -14.6992 11.9688 -26.668 26.667 -26.668h394.651c14.6992 0 26.668 11.9688 26.668 26.668v95.9961
c0 8.83203 7.16699 16 15.999 16s16 -7.16797 16 -16v-95.9961c0 -32.3623 -26.3047 -58.667 -58.667 -58.667zM453.325 -64zM256 85.3281c-8.83203 0 -16 7.16699 -16 15.999v330.658c0 8.83105 7.16797 15.999 16 15.999s15.999 -7.16797 15.999 -15.999v-330.658
c0 -8.83203 -7.16699 -15.999 -15.999 -15.999zM256 85.3281zM341.329 330.656c-4.09375 0 -8.19141 1.55469 -11.3047 4.69141l-74.0244 74.001l-74.0254 -74.001c-6.25 -6.25 -16.3818 -6.25 -22.6318 0c-6.25 6.24902 -6.25 16.3818 0 22.6357l85.3291 85.3291
c6.25 6.25 16.3828 6.25 22.6357 0l85.3301 -85.3291c6.25 -6.25391 6.25 -16.3867 0 -22.6357c-3.11328 -3.13672 -7.21094 -4.69141 -11.3086 -4.69141zM341.329 330.656z" />
    <glyph glyph-name="2065217" unicode="&#xf15c;" 
d="M16 -64c-8.83203 0 -16 7.16797 -16 16v480c0 8.83203 7.16797 16 16 16s16 -7.16797 16 -16v-480c0 -8.83203 -7.16797 -16 -16 -16zM16 -64zM240 170.668h-224c-8.83203 0 -16 7.16797 -16 16s7.16797 16 16 16h224c2.94531 0 5.33203 2.38672 5.33203 5.33203v202.668
c0 2.94141 -2.38672 5.33203 -5.33203 5.33203h-224c-8.83203 0 -16 7.16797 -16 16s7.16797 16 16 16h224c20.5859 0 37.332 -16.7461 37.332 -37.332v-202.668c0 -20.5859 -16.7461 -37.332 -37.332 -37.332zM240 170.668zM389.332 85.332h-213.332
c-20.5859 0 -37.332 16.7461 -37.332 37.3359v64c0 8.83203 7.16797 16 16 16s16 -7.16797 16 -16v-64c0 -2.90234 2.42969 -5.33594 5.33203 -5.33594h213.332c2.90234 0 5.33594 2.43359 5.33594 5.33594v202.664c0 2.90234 -2.43359 5.33594 -5.33594 5.33594h-128
c-8.83203 0 -16 7.16797 -16 16s7.16797 16 16 16h128c20.5898 0 37.3359 -16.7461 37.3359 -37.3359v-202.664c0 -20.5898 -16.7461 -37.3359 -37.3359 -37.3359zM389.332 85.332z" />
    <glyph glyph-name="2065216" unicode="&#xf15b;" 
d="M277.332 64c0 -11.7812 -9.55078 -21.332 -21.332 -21.332s-21.332 9.55078 -21.332 21.332s9.55078 21.332 21.332 21.332s21.332 -9.55078 21.332 -21.332zM277.332 64zM256 128c-8.83203 0 -16 7.16797 -16 16v181.332c0 8.83203 7.16797 16 16 16s16 -7.16797 16 -16
v-181.332c0 -8.83203 -7.16797 -16 -16 -16zM256 128zM453.332 -64h-394.664c-32.3633 0 -58.668 26.3047 -58.668 58.668v394.664c0 32.3633 26.3047 58.668 58.668 58.668h394.664c32.3633 0 58.668 -26.3047 58.668 -58.668v-394.664
c0 -32.3633 -26.3047 -58.668 -58.668 -58.668zM58.668 416c-14.6992 0 -26.668 -11.9688 -26.668 -26.668v-394.664c0 -14.6992 11.9688 -26.668 26.668 -26.668h394.664c14.6992 0 26.668 11.9688 26.668 26.668v394.664c0 14.6992 -11.9688 26.668 -26.668 26.668
h-394.664zM58.668 416z" />
    <glyph glyph-name="2065206" unicode="&#xf151;" 
d="M453.327 -64.001h-394.653c-32.3623 0 -58.666 26.3037 -58.666 58.666v181.325c0 8.83203 7.16797 16 15.999 16c8.83203 0 16 -7.16797 16 -16v-181.325c0 -14.6982 11.9678 -26.667 26.667 -26.667h394.653c14.6982 0 26.6631 11.9688 26.6631 26.667v309.32
c0 14.6992 -11.9648 26.667 -26.6631 26.667h-74.665c-8.83203 0 -16 7.16797 -16 16s7.16797 15.999 16 15.999h74.665c32.3623 0 58.6621 -26.3037 58.6621 -58.666v-309.32c0 -32.3623 -26.2998 -58.666 -58.6621 -58.666zM453.327 -64.001zM367.994 106.661
c-5.90625 0 -11.4766 3.28516 -14.249 8.72266l-0.277344 0.535156c-30.0576 60.1143 -90.3643 97.4023 -157.455 97.4023h-25.3428v-69.3291c0 -6.52734 -3.96875 -12.3945 -10.0273 -14.8477c-5.99219 -2.45312 -12.9688 -0.960938 -17.4912 3.75391l-138.663 143.995
c-5.97266 6.18652 -5.97266 15.999 0 22.1865l138.663 143.994c4.49902 4.73438 11.4561 6.20703 17.4912 3.75391c6.05859 -2.45312 10.0273 -8.32031 10.0273 -14.8467v-69.3301h5.33105c114.688 0 207.992 -93.3086 207.992 -207.992v-31.999
c0 -7.40137 -5.05371 -13.8232 -12.2646 -15.5537c-1.23828 -0.296875 -2.49609 -0.445312 -3.73438 -0.445312zM154.67 245.32h41.3428c60.2236 0 115.835 -25.4053 154.639 -68.709c-10.8359 86.7158 -85.0322 154.041 -174.65 154.041h-21.3311
c-8.83203 0 -15.999 7.16797 -15.999 16v45.6504l-100.453 -104.316l100.453 -104.316v45.6504c0 8.83203 7.16699 16 15.999 16zM154.67 245.32z" />
    <glyph glyph-name="2065207" unicode="&#xf152;" 
d="M453.331 -63.999h-394.664c-32.3623 0 -58.6631 26.3047 -58.6631 58.6641v309.332c0 32.3633 26.3008 58.6641 58.6631 58.6641h74.668c8.83203 0 15.999 -7.16797 15.999 -16s-7.16699 -16 -15.999 -16h-74.668c-14.6982 0 -26.6631 -11.9648 -26.6631 -26.6641
v-309.332c0 -14.6953 11.9648 -26.6641 26.6631 -26.6641h394.664c14.6992 0 26.668 11.9688 26.668 26.6641v181.334c0 8.83203 7.16797 16 16 16s16 -7.16797 16 -16v-181.334c0 -32.3594 -26.3047 -58.6641 -58.668 -58.6641zM453.331 -63.999zM143.979 106.94
c-1.17188 0 -2.34766 0.128906 -3.51953 0.429688c-7.23047 1.68359 -12.457 7.87109 -12.457 15.293v32c0 114.687 93.3115 207.998 207.998 207.998h5.33203v69.335c0 6.52734 3.96777 12.3945 10.0264 14.8477c6.03516 2.42969 12.9688 0.960938 17.4922 -3.75391
l138.667 -143.998c5.97266 -6.1875 5.97266 -16 0 -22.1875l-138.667 -143.999c-4.52344 -4.71484 -11.5 -6.16797 -17.4922 -3.75391c-6.05859 2.45312 -10.0264 8.32031 -10.0264 14.8477v69.3311h-25.3438c-67.1133 0 -127.425 -37.2881 -157.417 -97.2998
c-2.75391 -5.54688 -8.53516 -9.08984 -14.5928 -9.08984zM336.001 330.661c-89.6016 0 -163.796 -67.3037 -174.655 -154.021c38.7812 43.2607 94.3975 68.6904 154.644 68.6904h41.3428c8.83203 0 16 -7.16797 16 -16v-45.6514l100.456 104.319l-100.456 104.319v-45.6562
c0 -8.83203 -7.16797 -16 -16 -16h-21.3311zM336.001 330.661z" />
    <glyph glyph-name="2065204" unicode="&#xf14f;" 
d="M202.668 42.6602c-111.746 0 -202.668 90.9219 -202.668 202.664c0 111.746 90.9219 202.668 202.668 202.668c111.742 0 202.664 -90.9219 202.664 -202.668c0 -111.742 -90.9219 -202.664 -202.664 -202.664zM202.668 415.992
c-94.1016 0 -170.668 -76.5664 -170.668 -170.668s76.5664 -170.664 170.668 -170.664s170.664 76.5625 170.664 170.664s-76.5625 170.668 -170.664 170.668zM202.668 415.992zM496 -64.0078c-4.09766 0 -8.19141 1.55859 -11.3086 4.69141l-161.277 161.281
c-6.25 6.25 -6.25 16.3828 0 22.6367c6.25 6.25 16.3828 6.25 22.6328 0l161.281 -161.281c6.25 -6.25 6.25 -16.3828 0 -22.6367c-3.13672 -3.13281 -7.23047 -4.69141 -11.3281 -4.69141zM496 -64.0078zM282.668 229.324h-160c-8.83203 0 -16 7.16797 -16 16
s7.16797 16 16 16h160c8.83203 0 16 -7.16797 16 -16s-7.16797 -16 -16 -16zM282.668 229.324z" />
    <glyph glyph-name="2065205" unicode="&#xf150;" 
d="M202.668 42.6602c-111.746 0 -202.668 90.9219 -202.668 202.664c0 111.746 90.9219 202.668 202.668 202.668c111.742 0 202.664 -90.9219 202.664 -202.668c0 -111.742 -90.9219 -202.664 -202.664 -202.664zM202.668 415.992
c-94.1016 0 -170.668 -76.5664 -170.668 -170.668s76.5664 -170.664 170.668 -170.664s170.664 76.5625 170.664 170.664s-76.5625 170.668 -170.664 170.668zM202.668 415.992zM496 -64.0078c-4.09766 0 -8.19141 1.55859 -11.3086 4.69141l-161.277 161.281
c-6.25 6.25 -6.25 16.3828 0 22.6367c6.25 6.25 16.3828 6.25 22.6328 0l161.281 -161.281c6.25 -6.25 6.25 -16.3828 0 -22.6367c-3.13672 -3.13281 -7.23047 -4.69141 -11.3281 -4.69141zM496 -64.0078zM282.668 229.324h-160c-8.83203 0 -16 7.16797 -16 16
s7.16797 16 16 16h160c8.83203 0 16 -7.16797 16 -16s-7.16797 -16 -16 -16zM282.668 229.324zM202.668 149.324c-8.83203 0 -16 7.16797 -16 16v160c0 8.83203 7.16797 16 16 16s16 -7.16797 16 -16v-160c0 -8.83203 -7.16797 -16 -16 -16zM202.668 149.324z" />
    <glyph glyph-name="2065202" unicode="&#xf14d;" 
d="M176.812 96.8125c-4.09766 0 -8.19531 1.55469 -11.3086 4.69141c-6.25 6.25 -6.25 16.3828 0 22.6328l158.379 158.402c6.25 6.25 16.3828 6.25 22.6328 0c6.25391 -6.25 6.25391 -16.3828 0 -22.6367l-158.379 -158.398
c-3.13281 -3.13672 -7.23047 -4.69141 -11.3242 -4.69141zM176.812 96.8125zM335.188 96.8125c-4.09375 0 -8.19141 1.55469 -11.3047 4.69141l-158.379 158.379c-6.25 6.25 -6.25 16.3828 0 22.6328c6.25 6.25391 16.3828 6.25391 22.6328 0l158.379 -158.398
c6.25391 -6.25 6.25391 -16.3828 0 -22.6328c-3.13281 -3.11719 -7.23047 -4.67188 -11.3281 -4.67188zM335.188 96.8125zM453.332 -64h-394.664c-32.3633 0 -58.668 26.3047 -58.668 58.668v394.664c0 32.3633 26.3047 58.668 58.668 58.668h394.664
c32.3633 0 58.668 -26.3047 58.668 -58.668v-394.664c0 -32.3633 -26.3047 -58.668 -58.668 -58.668zM58.668 416c-14.6992 0 -26.668 -11.9688 -26.668 -26.668v-394.664c0 -14.6992 11.9688 -26.668 26.668 -26.668h394.664c14.6992 0 26.668 11.9688 26.668 26.668
v394.664c0 14.6992 -11.9688 26.668 -26.668 26.668h-394.664zM58.668 416z" />
    <glyph glyph-name="2065203" unicode="&#xf14e;" 
d="M202.668 42.6602c-111.746 0 -202.668 90.9219 -202.668 202.664c0 111.746 90.9219 202.668 202.668 202.668c111.742 0 202.664 -90.9219 202.664 -202.668c0 -111.742 -90.9219 -202.664 -202.664 -202.664zM202.668 415.992
c-94.1016 0 -170.668 -76.5664 -170.668 -170.668s76.5664 -170.664 170.668 -170.664s170.664 76.5625 170.664 170.664s-76.5625 170.668 -170.664 170.668zM202.668 415.992zM496 -64.0078c-4.09766 0 -8.19141 1.55859 -11.3086 4.69141l-161.277 161.281
c-6.25 6.25 -6.25 16.3828 0 22.6367c6.25 6.25 16.3828 6.25 22.6328 0l161.281 -161.281c6.25 -6.25 6.25 -16.3828 0 -22.6367c-3.13672 -3.13281 -7.23047 -4.69141 -11.3281 -4.69141zM496 -64.0078z" />
    <glyph glyph-name="2065200" unicode="&#xf14b;" 
d="M256 -64c-141.164 0 -256 114.836 -256 256s114.836 256 256 256s256 -114.836 256 -256s-114.836 -256 -256 -256zM256 416c-123.52 0 -224 -100.48 -224 -224s100.48 -224 224 -224s224 100.48 224 224s-100.48 224 -224 224zM256 416zM176.812 96.8125
c-4.09766 0 -8.19531 1.55469 -11.3086 4.69141c-6.25 6.25 -6.25 16.3828 0 22.6328l158.398 158.402c6.25391 6.25 16.3867 6.25 22.6367 0s6.25 -16.3828 0 -22.6367l-158.402 -158.398c-3.15625 -3.13672 -7.25 -4.69141 -11.3242 -4.69141zM176.812 96.8125z
M335.188 96.8125c-4.09375 0 -8.19141 1.55469 -11.3047 4.69141l-158.398 158.379c-6.25391 6.25 -6.25391 16.3828 0 22.6328c6.25 6.25391 16.3828 6.25391 22.6328 0l158.398 -158.398c6.25391 -6.25 6.25391 -16.3828 0 -22.6328
c-3.13281 -3.11719 -7.23047 -4.67188 -11.3281 -4.67188zM335.188 96.8125z" />
    <glyph glyph-name="2065201" unicode="&#xf14c;" 
d="M169.56 88.3877c-4.46582 0 -8.93555 1.7002 -12.332 5.12207c-6.81836 6.81836 -6.81836 17.8721 0 24.6904l172.776 172.803c6.81836 6.81836 17.8721 6.81836 24.6904 0s6.81836 -17.8721 0 -24.6943l-172.776 -172.799
c-3.42188 -3.42188 -7.8877 -5.12207 -12.3584 -5.12207zM169.56 88.3877zM342.337 88.3877c-4.46582 0 -8.93652 1.7002 -12.333 5.12207l-172.776 172.777c-6.81836 6.81836 -6.81836 17.8721 0 24.6904c6.81836 6.82227 17.8721 6.82227 24.6904 0l172.776 -172.799
c6.81836 -6.81836 6.81836 -17.8721 0 -24.6904c-3.42188 -3.40039 -7.8877 -5.10059 -12.3574 -5.10059zM342.337 88.3877zM354.997 -63.999h-197.607c-4.63281 0 -9.07715 1.83691 -12.3369 5.11816l-139.752 139.73c-3.28125 3.28125 -5.11719 7.72559 -5.11719 12.3369
v197.607c0 4.62793 1.83594 9.07715 5.11719 12.332l139.73 139.756c3.28125 3.28125 7.7041 5.11816 12.3369 5.11816h197.607c4.62793 0 9.07715 -1.83691 12.333 -5.11816l139.729 -139.729c3.28125 -3.28125 5.12207 -7.73047 5.12207 -12.3369v-197.608
c0 -4.63184 -1.84082 -9.07617 -5.12207 -12.3359l-139.729 -139.727c-3.23438 -3.30664 -7.67969 -5.14355 -12.3115 -5.14355zM164.604 -29.0898h183.158l129.489 129.512v183.157l-129.489 129.512h-183.158l-129.511 -129.512v-183.157zM164.604 -29.0898z" />
    <glyph glyph-name="2065208" unicode="&#xf153;" 
d="M389.332 288c-44.0938 0 -80 35.8828 -80 80s35.9062 80 80 80c44.0977 0 80 -35.8828 80 -80s-35.9023 -80 -80 -80zM389.332 416c-26.4531 0 -48 -21.5234 -48 -48s21.5469 -48 48 -48s48 21.5234 48 48s-21.5469 48 -48 48zM389.332 416zM389.332 -64
c-44.0938 0 -80 35.8828 -80 80s35.9062 80 80 80c44.0977 0 80 -35.8828 80 -80s-35.9023 -80 -80 -80zM389.332 64c-26.4531 0 -48 -21.5234 -48 -48s21.5469 -48 48 -48s48 21.5234 48 48s-21.5469 48 -48 48zM389.332 64zM80 112c-44.0977 0 -80 35.8828 -80 80
s35.9023 80 80 80s80 -35.8828 80 -80s-35.9023 -80 -80 -80zM80 240c-26.4531 0 -48 -21.5234 -48 -48s21.5469 -48 48 -48s48 21.5234 48 48s-21.5469 48 -48 48zM80 240zM135.703 207.574c-5.57031 0 -10.9883 2.90234 -13.9102 8.0625
c-4.375 7.67969 -1.70703 17.4531 5.97266 21.8242l197.953 112.855c7.65625 4.41406 17.4492 1.72656 21.8008 -5.97656c4.375 -7.67969 1.70703 -17.4492 -5.97266 -21.8242l-197.953 -112.852c-2.49609 -1.40625 -5.20312 -2.08984 -7.89062 -2.08984zM135.703 207.574z
M333.633 31.5742c-2.6875 0 -5.39844 0.683594 -7.89453 2.10938l-197.953 112.855c-7.67969 4.37109 -10.3438 14.1445 -5.97266 21.8242c4.35156 7.69922 14.125 10.3672 21.8047 5.97266l197.949 -112.852c7.67969 -4.375 10.3477 -14.1445 5.97656 -21.8242
c-2.94531 -5.18359 -8.36328 -8.08594 -13.9102 -8.08594zM333.633 31.5742z" />
    <glyph glyph-name="2065209" unicode="&#xf154;" 
d="M256 -64c-8.83203 0 -16 7.16797 -16 16v186.668c0 8.83203 7.16797 16 16 16s16 -7.16797 16 -16v-186.668c0 -8.83203 -7.16797 -16 -16 -16zM256 -64zM256 128c-35.2852 0 -64 28.7148 -64 64s28.7148 64 64 64s64 -28.7148 64 -64s-28.7148 -64 -64 -64zM256 224
c-17.6445 0 -32 -14.3555 -32 -32s14.3555 -32 32 -32s32 14.3555 32 32s-14.3555 32 -32 32zM256 224zM425.602 6.39844c-4.09766 0 -8.21484 1.58203 -11.3516 4.71484c-6.23047 6.25391 -6.20703 16.3867 0.0429688 22.6367
c42.3906 42.1328 65.707 98.3477 65.707 158.25c0 123.52 -100.48 224 -224 224s-224 -100.48 -224 -224c0 -59.9023 23.3164 -116.117 65.6836 -158.25c6.25391 -6.23047 6.27344 -16.3633 0.0429688 -22.6367c-6.22656 -6.26953 -16.3828 -6.26953 -22.6328 -0.0625
c-48.4258 48.2148 -75.0938 112.469 -75.0938 180.949c0 141.164 114.836 256 256 256s256 -114.836 256 -256c0 -68.4805 -26.668 -132.734 -75.1133 -180.949c-3.11719 -3.09375 -7.19141 -4.65234 -11.2852 -4.65234zM425.602 6.39844zM365.227 66.7734
c-4.11719 0 -8.23438 1.57812 -11.3477 4.73438c-6.23047 6.27344 -6.1875 16.4062 0.0820312 22.6367c26.2422 26.0469 40.707 60.8008 40.707 97.8555c0 76.457 -62.2109 138.668 -138.668 138.668s-138.668 -62.2109 -138.668 -138.668
c0 -37.0547 14.4648 -71.8086 40.707 -97.8789c6.26953 -6.22656 6.3125 -16.3594 0.0820312 -22.6328c-6.22656 -6.27344 -16.3398 -6.31641 -22.6328 -0.0859375c-32.3398 32.1289 -50.1562 74.9453 -50.1562 120.598c0 94.1016 76.5664 170.668 170.668 170.668
s170.668 -76.5664 170.668 -170.668c0 -45.6523 -17.8164 -88.4688 -50.1758 -120.574c-3.11719 -3.09375 -7.19141 -4.65234 -11.2656 -4.65234zM365.227 66.7734z" />
    <glyph glyph-name="2065169" unicode="&#xf12c;" 
d="M256 -21.332c-9.8125 0 -19.1562 3.88281 -25.9414 10.707c-18.9648 14.5508 -230.059 179.414 -230.059 317.676c0 77.7188 63.3594 140.949 141.227 140.949c46.1641 0 88.6602 -22.3359 114.773 -58.7305c26.1133 36.3945 68.6094 58.7305 114.773 58.7305
c77.8672 0 141.227 -63.2305 141.227 -140.949c0 -138.262 -211.094 -303.125 -230.059 -317.676c-6.78516 -6.82422 -16.1289 -10.707 -25.9414 -10.707zM141.227 416c-60.2227 0 -109.227 -48.875 -109.227 -108.949c0 -125.953 216.258 -291.309 218.434 -292.973
c0.808594 -0.59375 1.55469 -1.30078 2.21875 -2.04688c1.59766 -1.8125 5.05469 -1.8125 6.65625 0c0.679688 0.746094 1.42578 1.42969 2.21484 2.04688c2.21875 1.66406 218.477 167.129 218.477 292.973c0 60.0742 -49.0039 108.949 -109.227 108.949
c-43.5625 0 -82.8359 -25.6641 -100.098 -65.3438c-5.07422 -11.668 -24.2773 -11.668 -29.3516 0c-17.2617 39.6797 -56.5547 65.3438 -100.098 65.3438zM141.227 416z" />
    <glyph glyph-name="2065168" unicode="&#xf12b;" 
d="M453.332 -64h-394.664c-32.3633 0 -58.668 26.3047 -58.668 58.668v394.664c0 32.3633 26.3047 58.668 58.668 58.668h394.664c32.3633 0 58.668 -26.3047 58.668 -58.668v-394.664c0 -32.3633 -26.3047 -58.668 -58.668 -58.668zM58.668 416
c-14.6992 0 -26.668 -11.9688 -26.668 -26.668v-394.664c0 -14.6992 11.9688 -26.668 26.668 -26.668h394.664c14.6992 0 26.668 11.9688 26.668 26.668v394.664c0 14.6992 -11.9688 26.668 -26.668 26.668h-394.664zM58.668 416zM346.668 266.668h-181.336
c-8.83203 0 -16 7.16797 -16 16s7.16797 16 16 16h181.336c8.83203 0 16 -7.16797 16 -16s-7.16797 -16 -16 -16zM346.668 266.668zM346.668 176h-181.336c-8.83203 0 -16 7.16797 -16 16s7.16797 16 16 16h181.336c8.83203 0 16 -7.16797 16 -16s-7.16797 -16 -16 -16z
M346.668 176zM346.668 85.332h-181.336c-8.83203 0 -16 7.16797 -16 16s7.16797 16 16 16h181.336c8.83203 0 16 -7.16797 16 -16s-7.16797 -16 -16 -16zM346.668 85.332z" />
    <glyph glyph-name="2065167" unicode="&#xf12a;" 
d="M490.667 241.776h-469.334c-11.7754 0 -21.333 9.55664 -21.333 21.333s9.55762 21.333 21.333 21.333h469.334c11.7754 0 21.333 -9.55664 21.333 -21.333s-9.55762 -21.333 -21.333 -21.333zM490.667 241.776zM490.667 405.333h-469.334
c-11.7754 0 -21.333 9.55762 -21.333 21.334c0 11.7754 9.55762 21.333 21.333 21.333h469.334c11.7754 0 21.333 -9.55762 21.333 -21.333c0 -11.7764 -9.55762 -21.334 -21.333 -21.334zM490.667 405.333zM490.667 78.2236h-469.334
c-11.7754 0 -21.333 9.55762 -21.333 21.334c0 11.7754 9.55762 21.333 21.333 21.333h469.334c11.7754 0 21.333 -9.55762 21.333 -21.333c0 -11.7764 -9.55762 -21.334 -21.333 -21.334zM490.667 78.2236z" />
    <glyph glyph-name="2065166" unicode="&#xf129;" 
d="M256 -64c-141.164 0 -256 114.836 -256 256s114.836 256 256 256s256 -114.836 256 -256s-114.836 -256 -256 -256zM256 416c-123.52 0 -224 -100.48 -224 -224s100.48 -224 224 -224s224 100.48 224 224s-100.48 224 -224 224zM256 416zM346.668 266.668h-181.336
c-8.83203 0 -16 7.16797 -16 16s7.16797 16 16 16h181.336c8.83203 0 16 -7.16797 16 -16s-7.16797 -16 -16 -16zM346.668 266.668zM346.668 176h-181.336c-8.83203 0 -16 7.16797 -16 16s7.16797 16 16 16h181.336c8.83203 0 16 -7.16797 16 -16s-7.16797 -16 -16 -16z
M346.668 176zM346.668 85.332h-181.336c-8.83203 0 -16 7.16797 -16 16s7.16797 16 16 16h181.336c8.83203 0 16 -7.16797 16 -16s-7.16797 -16 -16 -16zM346.668 85.332z" />
    <glyph glyph-name="2065165" unicode="&#xf128;" 
d="M453.332 -64h-394.664c-32.3633 0 -58.668 26.3047 -58.668 58.668v394.664c0 32.3633 26.3047 58.668 58.668 58.668h394.664c32.3633 0 58.668 -26.3047 58.668 -58.668v-394.664c0 -32.3633 -26.3047 -58.668 -58.668 -58.668zM58.668 416
c-14.6992 0 -26.668 -11.9688 -26.668 -26.668v-394.664c0 -14.6992 11.9688 -26.668 26.668 -26.668h394.664c14.6992 0 26.668 11.9688 26.668 26.668v394.664c0 14.6992 -11.9688 26.668 -26.668 26.668h-394.664zM58.668 416zM309.332 16
c-16.4023 0 -30.7383 10.582 -35.7305 26.3047l-87.125 289.941c-0.535156 1.75 -2.39062 3.75391 -5.14453 3.75391c-2.75 0 -4.60547 -2.00391 -5.22656 -3.98828l-34.2617 -114.328c-7.74219 -24.9805 -30.3359 -41.6836 -56.2969 -41.6836h-69.5469
c-8.83203 0 -16 7.16797 -16 16s7.16797 16 16 16h69.5469c11.8398 0 22.1445 7.63672 25.6641 19.0312l34.3047 114.43c5.07812 15.957 19.4141 26.5391 35.8164 26.5391c16.4062 0 30.7422 -10.582 35.7344 -26.3047l87.125 -289.941
c0.535156 -1.75 2.39062 -3.75391 5.14062 -3.75391c2.5625 0 4.09766 1.49219 4.73828 2.90234l54.6758 122.43c9.34375 21.0352 30.4219 34.668 53.6523 34.668h73.6016c8.83203 0 16 -7.16797 16 -16s-7.16797 -16 -16 -16h-73.6016
c-10.6016 0 -20.1797 -6.16406 -24.4258 -15.6797l-54.6328 -122.262c-5.71875 -13.3125 -19.0938 -22.0586 -34.0078 -22.0586zM309.332 16z" />
    <glyph glyph-name="2065164" unicode="&#xf127;" 
d="M309.332 16c-16.4023 0 -30.7383 10.582 -35.7305 26.3047l-87.125 289.941c-0.535156 1.75 -2.39062 3.75391 -5.14453 3.75391c-2.75 0 -4.60547 -2.00391 -5.22656 -3.98828l-34.2617 -114.328c-7.74219 -24.9805 -30.3359 -41.6836 -56.2969 -41.6836h-69.5469
c-8.83203 0 -16 7.16797 -16 16s7.16797 16 16 16h69.5469c11.8398 0 22.1445 7.63672 25.6641 19.0312l34.3047 114.43c5.07812 15.957 19.4141 26.5391 35.8164 26.5391c16.4062 0 30.7422 -10.582 35.7344 -26.3047l87.125 -289.941
c0.535156 -1.75 2.39062 -3.75391 5.14062 -3.75391c2.5625 0 4.09766 1.49219 4.73828 2.90234l54.6758 122.43c9.34375 21.0352 30.4219 34.668 53.6523 34.668h73.6016c8.83203 0 16 -7.16797 16 -16s-7.16797 -16 -16 -16h-73.6016
c-10.6016 0 -20.1797 -6.16406 -24.4258 -15.6797l-54.6328 -122.262c-5.71875 -13.3125 -19.0938 -22.0586 -34.0078 -22.0586zM309.332 16zM256 -64c-141.164 0 -256 114.836 -256 256s114.836 256 256 256s256 -114.836 256 -256s-114.836 -256 -256 -256zM256 416
c-123.52 0 -224 -100.48 -224 -224s100.48 -224 224 -224s224 100.48 224 224s-100.48 224 -224 224zM256 416z" />
    <glyph glyph-name="2065163" unicode="&#xf126;" 
d="M16 -64c-8.83203 0 -16 7.16797 -16 16v480c0 8.83203 7.16797 16 16 16s16 -7.16797 16 -16v-480c0 -8.83203 -7.16797 -16 -16 -16zM16 -64zM362.668 170.668h-346.668c-8.83203 0 -16 7.16797 -16 16s7.16797 16 16 16h330.602l-102.762 77.2266
c-9.32422 7.29297 -14.5078 17.9609 -14.5078 29.4375c0 11.4805 5.18359 22.1445 14.2305 29.2266l103.039 77.4414h-330.602c-8.83203 0 -16 7.16797 -16 16s7.16797 16 16 16h346.668c14.6992 0 26.6641 -11.9688 26.6641 -26.668
c0 -8.42578 -3.81641 -16.1055 -10.4297 -21.1172l-115.863 -87.043c-0.445312 -0.382812 -1.70703 -1.68359 -1.70703 -3.85938s1.26172 -3.47656 1.98438 -4.05469l115.562 -86.8242c6.65625 -4.99219 10.4531 -12.6953 10.4531 -21.1211
c0 -14.6797 -11.9648 -26.6445 -26.6641 -26.6445zM362.668 416h0.210938h-0.210938zM362.668 416z" />
    <glyph glyph-name="2065162" unicode="&#xf125;" 
d="M256 -64c-141.164 0 -256 114.836 -256 256s114.836 256 256 256s256 -114.836 256 -256s-114.836 -256 -256 -256zM256 416c-123.52 0 -224 -100.48 -224 -224s100.48 -224 224 -224s224 100.48 224 224s-100.48 224 -224 224zM256 416zM320 96
c-8.83203 0 -16 7.16797 -16 16c0 26.4766 -21.5469 48 -48 48s-48 -21.5234 -48 -48c0 -8.83203 -7.16797 -16 -16 -16s-16 7.16797 -16 16c0 44.1172 35.9023 80 80 80s80 -35.8828 80 -80c0 -8.83203 -7.16797 -16 -16 -16zM320 96zM482.348 96h-452.695
c-8.83203 0 -16 7.16797 -16 16s7.16797 16 16 16h452.695c8.83203 0 16 -7.16797 16 -16s-7.16797 -16 -16 -16zM482.348 96zM256 160c-8.83203 0 -16 7.16797 -16 16v149.332c0 8.83203 7.16797 16 16 16s16 -7.16797 16 -16v-149.332c0 -8.83203 -7.16797 -16 -16 -16z
M256 160z" />
    <glyph glyph-name="2065161" unicode="&#xf124;" 
d="M208 -64c-2.58203 0 -5.18359 0.617188 -7.55078 1.89844c-5.20703 2.77344 -8.44922 8.21484 -8.44922 14.1016v150.676c0 7.9375 -3.5 15.4023 -9.60156 20.4805l-161.277 134.316c-13.4414 11.1797 -21.1211 27.6055 -21.1211 45.0781v70.7812
c0 8.83203 7.16797 16 16 16s16 -7.16797 16 -16v-70.7812c0 -7.9375 3.5 -15.4023 9.60156 -20.4805l161.277 -134.316c13.4414 -11.1797 21.1211 -27.6055 21.1211 -45.0781v-120.789l61.6328 41.0898c1.47266 0.980469 2.36719 2.64453 2.36719 4.4375v75.2617
c0 17.4727 7.67969 33.8984 21.0977 45.0781l161.324 134.316c6.07812 5.07812 9.57812 12.543 9.57812 20.4805v70.7812c0 8.83203 7.16797 16 16 16s16 -7.16797 16 -16v-70.7812c0 -17.4727 -7.67969 -33.8984 -21.0977 -45.0781l-161.324 -134.316
c-6.07812 -5.07812 -9.57812 -12.543 -9.57812 -20.4805v-75.2617c0 -12.5039 -6.20703 -24.1289 -16.6172 -31.0625l-86.5078 -57.6641c-2.66797 -1.79297 -5.76172 -2.6875 -8.875 -2.6875zM208 -64zM256 298.668c-95.082 0 -256 15.7227 -256 74.6641
c0 58.9453 160.918 74.668 256 74.668s256 -15.7227 256 -74.668c0 -58.9414 -160.918 -74.6641 -256 -74.6641zM256 416c-139.391 0 -219.945 -27.9453 -224.02 -42.9219c4.07422 -14.4648 84.6289 -42.4102 224.02 -42.4102c138.625 0 219.051 27.625 223.957 42.6641
c-4.90625 15.043 -85.332 42.668 -223.957 42.668zM480.02 373.078h0.214844h-0.214844zM480.02 373.078z" />
    <glyph glyph-name="2065160" unicode="&#xf123;" 
d="M453.332 -64h-394.664c-32.3633 0 -58.668 26.3047 -58.668 58.668v394.664c0 32.3633 26.3047 58.668 58.668 58.668h330.836c21.0547 0 41.6836 -8.53516 56.5547 -23.4453l42.4961 -42.4961c15.125 -15.125 23.4453 -35.2227 23.4453 -56.5742v-330.816
c0 -32.3633 -26.3047 -58.668 -58.668 -58.668zM58.668 416c-14.6992 0 -26.668 -11.9688 -26.668 -26.668v-394.664c0 -14.6992 11.9688 -26.668 26.668 -26.668h394.664c14.6992 0 26.668 11.9688 26.668 26.668v330.816c0 12.8203 -4.99219 24.8711 -14.0586 33.9414
l-42.4961 42.4961c-8.9375 8.95703 -21.2891 14.0781 -33.9414 14.0781h-330.836zM58.668 416zM325.332 298.668h-224c-8.83203 0 -16 7.16797 -16 16v117.332c0 8.83203 7.16797 16 16 16s16 -7.16797 16 -16v-101.332h192v101.332c0 8.83203 7.16797 16 16 16
s16 -7.16797 16 -16v-117.332c0 -8.83203 -7.16797 -16 -16 -16zM325.332 298.668zM256 32c-52.9297 0 -96 43.0703 -96 96s43.0703 96 96 96s96 -43.0703 96 -96s-43.0703 -96 -96 -96zM256 192c-35.2852 0 -64 -28.7148 -64 -64s28.7148 -64 64 -64s64 28.7148 64 64
s-28.7148 64 -64 64zM256 192z" />
    <glyph glyph-name="2065178" unicode="&#xf135;" 
d="M453.332 -64h-394.664c-32.3633 0 -58.668 26.3047 -58.668 58.668v394.664c0 32.3633 26.3047 58.668 58.668 58.668h394.664c32.3633 0 58.668 -26.3047 58.668 -58.668v-394.664c0 -32.3633 -26.3047 -58.668 -58.668 -58.668zM58.668 416
c-14.6992 0 -26.668 -11.9688 -26.668 -26.668v-394.664c0 -14.6992 11.9688 -26.668 26.668 -26.668h394.664c14.6992 0 26.668 11.9688 26.668 26.668v394.664c0 14.6992 -11.9688 26.668 -26.668 26.668h-394.664zM58.668 416zM410.668 192
c-8.83203 0 -16 7.16797 -16 16v122.668h-122.668c-8.83203 0 -16 7.16797 -16 16s7.16797 16 16 16h138.668c8.83203 0 16 -7.16797 16 -16v-138.668c0 -8.83203 -7.16797 -16 -16 -16zM410.668 192zM229.332 149.332c-4.09375 0 -8.19141 1.55859 -11.3047 4.69531
c-6.25 6.25 -6.25 16.3828 0 22.6328l181.332 181.336c6.25 6.25 16.3828 6.25 22.6367 0c6.25 -6.25391 6.25 -16.3867 0 -22.6367l-181.336 -181.332c-3.13672 -3.13672 -7.23047 -4.69531 -11.3281 -4.69531zM229.332 149.332zM176 -64c-8.83203 0 -16 7.16797 -16 16
v144h-144c-8.83203 0 -16 7.16797 -16 16s7.16797 16 16 16h160c8.83203 0 16 -7.16797 16 -16v-160c0 -8.83203 -7.16797 -16 -16 -16zM176 -64z" />
    <glyph glyph-name="2065179" unicode="&#xf136;" 
d="M453.332 -64h-394.664c-32.3633 0 -58.668 26.3047 -58.668 58.668v394.664c0 32.3633 26.3047 58.668 58.668 58.668h394.664c32.3633 0 58.668 -26.3047 58.668 -58.668v-394.664c0 -32.3633 -26.3047 -58.668 -58.668 -58.668zM58.668 416
c-14.6992 0 -26.668 -11.9688 -26.668 -26.668v-394.664c0 -14.6992 11.9688 -26.668 26.668 -26.668h394.664c14.6992 0 26.668 11.9688 26.668 26.668v394.664c0 14.6992 -11.9688 26.668 -26.668 26.668h-394.664zM58.668 416zM368 149.332h-138.668
c-8.83203 0 -16 7.16797 -16 16v138.668c0 8.83203 7.16797 16 16 16s16 -7.16797 16 -16v-122.668h122.668c8.83203 0 16 -7.16797 16 -16s-7.16797 -16 -16 -16zM368 149.332zM229.332 149.332c-4.09375 0 -8.19141 1.55859 -11.3047 4.69531
c-6.25 6.25 -6.25 16.3828 0 22.6328l181.332 181.336c6.25 6.25 16.3828 6.25 22.6367 0c6.25 -6.25391 6.25 -16.3867 0 -22.6367l-181.336 -181.332c-3.13672 -3.13672 -7.23047 -4.69531 -11.3281 -4.69531zM229.332 149.332zM176 -64c-8.83203 0 -16 7.16797 -16 16
v144h-144c-8.83203 0 -16 7.16797 -16 16s7.16797 16 16 16h160c8.83203 0 16 -7.16797 16 -16v-160c0 -8.83203 -7.16797 -16 -16 -16zM176 -64z" />
    <glyph glyph-name="2065174" unicode="&#xf131;" 
d="M277.332 320c0 -11.7812 -9.55078 -21.332 -21.332 -21.332s-21.332 9.55078 -21.332 21.332s9.55078 21.332 21.332 21.332s21.332 -9.55078 21.332 -21.332zM277.332 320zM256 42.668c-8.83203 0 -16 7.16797 -16 16v165.332h-21.332c-8.83203 0 -16 7.16797 -16 16
s7.16797 16 16 16h37.332c8.83203 0 16 -7.16797 16 -16v-181.332c0 -8.83203 -7.16797 -16 -16 -16zM256 42.668zM256 -64c-141.164 0 -256 114.836 -256 256s114.836 256 256 256s256 -114.836 256 -256s-114.836 -256 -256 -256zM256 416
c-123.52 0 -224 -100.48 -224 -224s100.48 -224 224 -224s224 100.48 224 224s-100.48 224 -224 224zM256 416zM304 42.668h-96c-8.83203 0 -16 7.16797 -16 16s7.16797 16 16 16h96c8.83203 0 16 -7.16797 16 -16s-7.16797 -16 -16 -16zM304 42.668z" />
    <glyph glyph-name="2065175" unicode="&#xf132;" 
d="M277.332 320c0 -11.7812 -9.55078 -21.332 -21.332 -21.332s-21.332 9.55078 -21.332 21.332s9.55078 21.332 21.332 21.332s21.332 -9.55078 21.332 -21.332zM277.332 320zM256 53.332c-8.83203 0 -16 7.16797 -16 16v154.668h-21.332c-8.83203 0 -16 7.16797 -16 16
s7.16797 16 16 16h37.332c8.83203 0 16 -7.16797 16 -16v-170.668c0 -8.83203 -7.16797 -16 -16 -16zM256 53.332zM453.332 -64h-394.664c-32.3633 0 -58.668 26.3047 -58.668 58.668v394.664c0 32.3633 26.3047 58.668 58.668 58.668h394.664
c32.3633 0 58.668 -26.3047 58.668 -58.668v-394.664c0 -32.3633 -26.3047 -58.668 -58.668 -58.668zM58.668 416c-14.6992 0 -26.668 -11.9688 -26.668 -26.668v-394.664c0 -14.6992 11.9688 -26.668 26.668 -26.668h394.664c14.6992 0 26.668 11.9688 26.668 26.668
v394.664c0 14.6992 -11.9688 26.668 -26.668 26.668h-394.664zM58.668 416zM304 53.332h-96c-8.83203 0 -16 7.16797 -16 16s7.16797 16 16 16h96c8.83203 0 16 -7.16797 16 -16s-7.16797 -16 -16 -16zM304 53.332z" />
    <glyph glyph-name="2065176" unicode="&#xf133;" 
d="M401.44 -63.998h-337.441c-35.3037 0 -63.999 28.6904 -63.999 63.9951v337.445c0 35.2998 28.6953 63.9951 63.999 63.9951h221.081c9.63477 0 17.4541 -7.81934 17.4541 -17.4541s-7.81934 -17.4541 -17.4541 -17.4541h-221.081
c-16.0352 0 -29.0908 -13.0557 -29.0908 -29.0869v-337.445c0 -16.0352 13.0557 -29.0869 29.0908 -29.0869h337.441c16.0352 0 29.0918 13.0518 29.0918 29.0869v221.085c0 9.63379 7.81934 17.4531 17.4541 17.4531s17.4541 -7.81934 17.4541 -17.4531v-221.085
c0 -35.3047 -28.6953 -63.9951 -64 -63.9951zM401.44 -63.998zM378.17 145.449h-151.269c-9.63477 0 -17.4541 7.81934 -17.4541 17.4541v151.265c0 9.63477 7.81934 17.4541 17.4541 17.4541s17.4541 -7.81934 17.4541 -17.4541v-133.811h133.814
c9.63477 0 17.4541 -7.81934 17.4541 -17.4541s-7.81934 -17.4541 -17.4541 -17.4541zM378.17 145.449zM226.901 145.449c-4.46973 0 -8.93555 1.69629 -12.3359 5.11816c-6.81836 6.81738 -6.81836 17.8711 0 24.6934l267.63 267.626
c6.81738 6.81738 17.8711 6.81738 24.6895 0c6.81836 -6.81836 6.81836 -17.8721 0 -24.6943l-267.626 -267.625c-3.42188 -3.42188 -7.8877 -5.11816 -12.3574 -5.11816zM226.901 145.449z" />
    <glyph glyph-name="2065177" unicode="&#xf134;" 
d="M256.361 -63.999c-65.5889 0 -131.175 24.9492 -181.096 74.8945c-99.8438 99.8623 -99.8438 262.348 0 362.214c99.8623 99.8633 262.348 99.8438 362.215 0c99.8428 -99.8662 99.8428 -262.352 0 -362.214c-49.9453 -49.9453 -115.53 -74.8945 -181.119 -74.8945z
M256.361 415.989c-57.3906 0 -114.784 -21.835 -158.473 -65.5264c-87.3604 -87.377 -87.3604 -229.544 0 -316.944c87.377 -87.3604 229.544 -87.3604 316.948 0c87.3564 87.377 87.3564 229.544 0 316.944c-43.6924 43.6914 -101.082 65.5264 -158.476 65.5264z
M256.361 415.989zM256.361 63.9746c-32.8047 0 -65.5889 12.4863 -90.5576 37.458c-49.9219 49.9219 -49.9219 131.175 0 181.096c49.9209 49.9414 131.174 49.9414 181.096 0c49.9209 -49.9209 49.9209 -131.174 0 -181.096
c-24.9492 -24.9717 -57.7344 -37.458 -90.5381 -37.458zM256.361 287.992c-24.5859 0 -49.1953 -9.34766 -67.915 -28.0869c-37.4346 -37.459 -37.4346 -98.3701 0 -135.829c37.459 -37.459 98.3701 -37.459 135.829 0c37.4355 37.459 37.4355 98.3701 0 135.829
c-18.7197 18.7393 -43.3252 28.0869 -67.9141 28.0869zM256.361 287.992zM151.012 213.399c-4.09961 0 -8.19531 1.55469 -11.3145 4.69336l-94.9346 94.9346c-6.25293 6.25293 -6.25293 16.3945 0 22.6475c6.25684 6.25293 16.3945 6.25293 22.6475 0l94.9346 -94.9346
c6.25293 -6.25293 6.25293 -16.3945 0 -22.6475c-3.1377 -3.11523 -7.2334 -4.69336 -11.333 -4.69336zM151.012 213.399zM388.712 -24.2812c-4.09961 0 -8.19531 1.55957 -11.3145 4.69727l-94.7627 94.7627c-6.25293 6.25293 -6.25293 16.3906 0 22.6475
c6.25293 6.25293 16.3906 6.25293 22.6436 0l94.7666 -94.7666c6.25293 -6.25293 6.25293 -16.3906 0 -22.6436c-3.13867 -3.1377 -7.23828 -4.69727 -11.333 -4.69727zM388.712 -24.2812zM218.945 281.333c-4.0957 0 -8.19531 1.55957 -11.3096 4.69727l-94.9355 94.9111
c-6.25195 6.25293 -6.25195 16.3906 0 22.6475c6.25293 6.25293 16.3906 6.25293 22.6436 0l94.9346 -94.9346c6.25684 -6.25684 6.25684 -16.3945 0 -22.6475c-3.15723 -3.11426 -7.25293 -4.67383 -11.333 -4.67383zM218.945 281.333zM456.626 43.6328
c-4.09961 0 -8.19531 1.55957 -11.3145 4.69727l-94.7627 94.7627c-6.25293 6.25293 -6.25293 16.3906 0 22.6475c6.25293 6.25293 16.3906 6.25293 22.6436 0l94.7666 -94.7666c6.25293 -6.25293 6.25293 -16.3906 0 -22.6436
c-3.1377 -3.1377 -7.2373 -4.69727 -11.333 -4.69727zM456.626 43.6328zM124.011 -24.2812c-4.0957 0 -8.19531 1.55957 -11.3105 4.69727c-6.25195 6.25293 -6.25195 16.3906 0 22.6436l94.9355 94.9346c6.25293 6.25293 16.3896 6.25293 22.6426 0
c6.25684 -6.25293 6.25684 -16.3906 0 -22.6436l-94.9346 -94.9346c-3.13379 -3.1377 -7.2334 -4.69727 -11.333 -4.69727zM124.011 -24.2812zM361.859 213.567c-4.0957 0 -8.19531 1.55859 -11.3105 4.69727c-6.25293 6.25293 -6.25293 16.3906 0 22.6436l94.7627 94.7666
c6.25293 6.25293 16.3945 6.25293 22.6475 0s6.25293 -16.3945 0 -22.6475l-94.7666 -94.7627c-3.13379 -3.13867 -7.2334 -4.69727 -11.333 -4.69727zM361.859 213.567zM56.0967 43.6328c-4.0957 0 -8.19531 1.55957 -11.3105 4.69727
c-6.25293 6.25293 -6.25293 16.3906 0 22.6436l94.9346 94.9346c6.25293 6.25293 16.3906 6.25293 22.6436 0c6.25684 -6.25293 6.25684 -16.3906 0 -22.6436l-94.9346 -94.9346c-3.15723 -3.1377 -7.2334 -4.69727 -11.333 -4.69727zM56.0967 43.6328zM293.949 281.481
c-4.09961 0 -8.19922 1.55957 -11.3145 4.69727c-6.25293 6.25293 -6.25293 16.3906 0 22.6436l94.7627 94.7666c6.25684 6.25293 16.3945 6.25293 22.6475 0c6.25293 -6.25684 6.25293 -16.3945 0 -22.6475l-94.7666 -94.7627
c-3.13477 -3.1377 -7.23438 -4.69727 -11.3291 -4.69727zM293.949 281.481z" />
    <glyph glyph-name="2065170" unicode="&#xf12d;" 
d="M410.663 -64.001h-85.3301c-8.83203 0 -16 7.16797 -16 16v138.665c0 2.94531 -2.39062 5.33203 -5.33496 5.33203h-95.998c-2.94141 0 -5.33203 -2.38672 -5.33203 -5.33203v-138.665c0 -8.83203 -7.16797 -16 -16 -16h-85.3301
c-20.5859 0 -37.335 16.7461 -37.335 37.335v197.328h-37.332c-14.6982 0 -26.667 11.9688 -26.667 26.667c0 7.05859 2.88281 13.9727 7.89453 18.9844l237.03 227.237c6.1875 5.93359 15.9561 5.93359 22.1436 0l236.796 -226.979
c5.24609 -5.26953 8.125 -12.1836 8.125 -19.2422c0 -14.6982 -11.9648 -26.667 -26.6631 -26.667h-37.3359v-197.328c0 -20.5889 -16.7451 -37.335 -37.3311 -37.335zM341.333 -32.002h69.3301c2.90234 0 5.33203 2.43359 5.33203 5.33594v213.328
c0 8.83105 7.16797 15.999 16 15.999h40.1279l-216.124 207.164l-216.121 -207.164h40.124c8.83203 0 16 -7.16797 16 -15.999v-213.328c0 -2.90234 2.43359 -5.33594 5.33594 -5.33594h69.3301v122.666c0 20.585 16.7461 37.3311 37.332 37.3311h95.998
c20.5889 0 37.335 -16.7461 37.335 -37.3311v-122.666zM341.333 -32.002z" />
    <glyph glyph-name="2065171" unicode="&#xf12e;" 
d="M410.66 -64.002h-85.3291c-8.83203 0 -16 7.16797 -16 16v143.996c0 2.94531 -2.39062 5.33594 -5.33203 5.33594h-95.9971c-2.94531 0 -5.33594 -2.39062 -5.33594 -5.33594v-143.996c0 -8.83203 -7.16797 -16 -15.999 -16h-85.3301
c-20.585 0 -37.3311 16.75 -37.3311 37.335v197.327h-37.335c-14.6943 0 -26.6631 11.9688 -26.6631 26.667c0 7.05859 2.87891 13.9727 7.89453 18.9844l237.024 227.235c6.08203 5.84766 15.7031 5.95312 21.9092 0.214844l74.4941 -68.6895v35.5811
c0 8.83203 7.16797 16 16 16h74.666c8.83203 0 15.999 -7.16797 15.999 -16v-139.195l55.999 -55.0371c5.12109 -5.12109 7.99902 -12.0352 7.99902 -19.0938c0 -14.6982 -11.9678 -26.667 -26.667 -26.667h-37.3311v-197.327c0 -20.585 -16.7451 -37.335 -37.335 -37.335z
M341.33 -32.002h69.3301c2.90234 0 5.33594 2.43359 5.33594 5.33496v213.326c0 8.83203 7.16797 16 16 16h40.3623l-51.5615 50.667c-3.07422 3.00684 -4.80078 7.12402 -4.80078 11.4131v129.915h-42.667v-56.1045c0 -6.35938 -3.75293 -12.0977 -9.57715 -14.6553
c-5.80078 -2.58203 -12.5859 -1.41016 -17.2578 2.90137l-90.2822 83.2402l-216.334 -207.377h40.1279c8.83105 0 15.999 -7.16797 15.999 -16v-213.326c0 -2.90137 2.42969 -5.33496 5.33203 -5.33496h69.3301v127.996c0 20.5889 16.75 37.335 37.335 37.335h95.9971
c20.5859 0 37.3311 -16.7461 37.3311 -37.335v-127.996zM341.33 -32.002z" />
    <glyph glyph-name="2065172" unicode="&#xf12f;" 
d="M399.995 -64.001h-287.993c-26.4727 0 -47.999 21.5264 -47.999 47.999v186.664h-37.332c-14.6982 0 -26.667 11.9688 -26.667 26.667c0 7.05859 2.88281 13.9727 7.89453 18.9844l237.03 227.237c6.1875 5.93359 15.9561 5.93359 22.1436 0l236.796 -226.979
c5.24609 -5.26953 8.125 -12.1836 8.125 -19.2422c0 -14.6982 -11.9648 -26.667 -26.6631 -26.667h-37.3359v-186.664c0 -26.4727 -21.5225 -47.999 -47.999 -47.999zM39.8779 202.661h40.124c8.83203 0 16 -7.16797 16 -15.999v-202.664c0 -8.83203 7.16797 -16 16 -16
h287.993c8.83203 0 16 7.16797 16 16v202.664c0 8.83105 7.16797 15.999 16 15.999h40.1279l-216.124 207.164zM481.49 193.7h0.210938h-0.210938zM481.49 193.7z" />
    <glyph glyph-name="2065173" unicode="&#xf130;" 
d="M399.997 -64.002h-287.992c-26.4756 0 -47.999 21.5273 -47.999 47.999v186.663h-37.335c-14.6943 0 -26.6631 11.9688 -26.6631 26.667c0 7.05859 2.87891 13.9727 7.89453 18.9844l237.024 227.235c6.10156 5.84766 15.7031 5.95312 21.9092 0.214844l74.4941 -68.6895
v35.5811c0 8.83203 7.16797 16 16 16h74.666c8.83203 0 15.999 -7.16797 15.999 -16v-139.195l55.999 -55.0371c5.12109 -5.12109 7.99902 -12.0352 7.99902 -19.0938c0 -14.6982 -11.9678 -26.667 -26.667 -26.667h-37.3311v-186.663
c0 -26.4717 -21.5264 -47.999 -47.998 -47.999zM39.8779 202.659h40.1279c8.83105 0 15.999 -7.16797 15.999 -16v-202.662c0 -8.83203 7.16797 -15.999 16 -15.999h287.992c8.83105 0 15.999 7.16699 15.999 15.999v202.662c0 8.83203 7.16797 16 16 16h40.3623
l-51.5615 50.667c-3.07422 3.00684 -4.80078 7.12402 -4.80078 11.4131v129.915h-42.667v-56.1045c0 -6.35938 -3.75293 -12.0977 -9.57715 -14.6553c-5.78125 -2.58203 -12.5859 -1.41016 -17.2578 2.90137l-90.2822 83.2402zM39.8779 202.659z" />
    <glyph glyph-name="2065212" unicode="&#xf157;" 
d="M410.668 165.332h-165.336c-8.83203 0 -16 7.16797 -16 16v165.336c0 8.83203 7.16797 16 16 16s16 -7.16797 16 -16v-149.336h149.336c8.83203 0 16 -7.16797 16 -16s-7.16797 -16 -16 -16zM410.668 165.332zM256 -64c-141.164 0 -256 114.836 -256 256
s114.836 256 256 256s256 -114.836 256 -256s-114.836 -256 -256 -256zM256 416c-123.52 0 -224 -100.48 -224 -224s100.48 -224 224 -224s224 100.48 224 224s-100.48 224 -224 224zM256 416z" />
    <glyph glyph-name="2065149" unicode="&#xf118;" 
d="M197.332 277.332h-160c-20.5859 0 -37.332 16.7461 -37.332 37.3359v96c0 20.5859 16.7461 37.332 37.332 37.332h160c20.5898 0 37.3359 -16.7461 37.3359 -37.332v-96c0 -20.5898 -16.7461 -37.3359 -37.3359 -37.3359zM37.332 416
c-2.94141 0 -5.33203 -2.39062 -5.33203 -5.33203v-96c0 -2.94531 2.39062 -5.33594 5.33203 -5.33594h160c2.94531 0 5.33594 2.39062 5.33594 5.33594v96c0 2.94141 -2.39062 5.33203 -5.33594 5.33203h-160zM37.332 416zM197.332 -64h-160
c-20.5859 0 -37.332 16.7461 -37.332 37.332v224c0 20.5898 16.7461 37.3359 37.332 37.3359h160c20.5898 0 37.3359 -16.7461 37.3359 -37.3359v-224c0 -20.5859 -16.7461 -37.332 -37.3359 -37.332zM37.332 202.668c-2.94141 0 -5.33203 -2.39062 -5.33203 -5.33594v-224
c0 -2.94141 2.39062 -5.33203 5.33203 -5.33203h160c2.94531 0 5.33594 2.39062 5.33594 5.33203v224c0 2.94531 -2.39062 5.33594 -5.33594 5.33594h-160zM37.332 202.668zM474.668 -64h-160c-20.5898 0 -37.3359 16.7461 -37.3359 37.332v96
c0 20.5898 16.7461 37.3359 37.3359 37.3359h160c20.5859 0 37.332 -16.7461 37.332 -37.3359v-96c0 -20.5859 -16.7461 -37.332 -37.332 -37.332zM314.668 74.668c-2.94531 0 -5.33594 -2.39062 -5.33594 -5.33594v-96c0 -2.94141 2.39062 -5.33203 5.33594 -5.33203h160
c2.94141 0 5.33203 2.39062 5.33203 5.33203v96c0 2.94531 -2.39062 5.33594 -5.33203 5.33594h-160zM314.668 74.668zM474.668 149.332h-160c-20.5898 0 -37.3359 16.7461 -37.3359 37.3359v224c0 20.5859 16.7461 37.332 37.3359 37.332h160
c20.5859 0 37.332 -16.7461 37.332 -37.332v-224c0 -20.5898 -16.7461 -37.3359 -37.332 -37.3359zM314.668 416c-2.94531 0 -5.33594 -2.39062 -5.33594 -5.33203v-224c0 -2.94531 2.39062 -5.33594 5.33594 -5.33594h160c2.94141 0 5.33203 2.39062 5.33203 5.33594v224
c0 2.94141 -2.39062 5.33203 -5.33203 5.33203h-160zM314.668 416z" />
    <glyph glyph-name="2065148" unicode="&#xf117;" 
d="M197.332 256h-96c-20.5859 0 -37.332 16.7461 -37.332 37.332v53.3359c0 20.5859 16.7461 37.332 37.332 37.332h96c20.5898 0 37.3359 -16.7461 37.3359 -37.332v-53.3359c0 -20.5859 -16.7461 -37.332 -37.3359 -37.332zM101.332 352
c-2.94141 0 -5.33203 -2.39062 -5.33203 -5.33203v-53.3359c0 -2.94141 2.39062 -5.33203 5.33203 -5.33203h96c2.94531 0 5.33594 2.39062 5.33594 5.33203v53.3359c0 2.94141 -2.39062 5.33203 -5.33594 5.33203h-96zM101.332 352zM410.668 0h-96
c-20.5898 0 -37.3359 16.7461 -37.3359 37.332v53.3359c0 20.5859 16.7461 37.332 37.3359 37.332h96c20.5859 0 37.332 -16.7461 37.332 -37.332v-53.3359c0 -20.5859 -16.7461 -37.332 -37.332 -37.332zM314.668 96c-2.94531 0 -5.33594 -2.39062 -5.33594 -5.33203
v-53.3359c0 -2.94141 2.39062 -5.33203 5.33594 -5.33203h96c2.94141 0 5.33203 2.39062 5.33203 5.33203v53.3359c0 2.94141 -2.39062 5.33203 -5.33203 5.33203h-96zM314.668 96zM410.668 170.668h-96c-20.5898 0 -37.3359 16.7461 -37.3359 37.332v138.668
c0 20.5859 16.7461 37.332 37.3359 37.332h96c20.5859 0 37.332 -16.7461 37.332 -37.332v-138.668c0 -20.5859 -16.7461 -37.332 -37.332 -37.332zM314.668 352c-2.94531 0 -5.33594 -2.39062 -5.33594 -5.33203v-138.668c0 -2.94531 2.39062 -5.33203 5.33594 -5.33203h96
c2.94141 0 5.33203 2.38672 5.33203 5.33203v138.668c0 2.94141 -2.39062 5.33203 -5.33203 5.33203h-96zM314.668 352zM197.332 0h-96c-20.5859 0 -37.332 16.7461 -37.332 37.332v138.668c0 20.5859 16.7461 37.332 37.332 37.332h96
c20.5898 0 37.3359 -16.7461 37.3359 -37.332v-138.668c0 -20.5859 -16.7461 -37.332 -37.3359 -37.332zM101.332 181.332c-2.94141 0 -5.33203 -2.38672 -5.33203 -5.33203v-138.668c0 -2.94141 2.39062 -5.33203 5.33203 -5.33203h96
c2.94531 0 5.33594 2.39062 5.33594 5.33203v138.668c0 2.94531 -2.39062 5.33203 -5.33594 5.33203h-96zM101.332 181.332zM453.332 -64h-394.664c-32.3633 0 -58.668 26.3047 -58.668 58.668v394.664c0 32.3633 26.3047 58.668 58.668 58.668h394.664
c32.3633 0 58.668 -26.3047 58.668 -58.668v-394.664c0 -32.3633 -26.3047 -58.668 -58.668 -58.668zM58.668 416c-14.6992 0 -26.668 -11.9688 -26.668 -26.668v-394.664c0 -14.6992 11.9688 -26.668 26.668 -26.668h394.664c14.6992 0 26.668 11.9688 26.668 26.668
v394.664c0 14.6992 -11.9688 26.668 -26.668 26.668h-394.664zM58.668 416z" />
    <glyph glyph-name="2065141" unicode="&#xf110;" 
d="M208 0h-149.332c-32.3633 0 -58.668 26.3047 -58.668 58.668v266.664c0 32.3633 26.3047 58.668 58.668 58.668h42.6641c8.83203 0 16 -7.16797 16 -16s-7.16797 -16 -16 -16h-42.6641c-14.6992 0 -26.668 -11.9688 -26.668 -26.668v-266.664
c0 -14.6992 11.9688 -26.668 26.668 -26.668h149.332c8.83203 0 16 -7.16797 16 -16s-7.16797 -16 -16 -16zM208 0zM346.668 266.668c-8.83203 0 -16 7.16797 -16 16v42.6641c0 14.6992 -11.9688 26.668 -26.668 26.668h-42.668c-8.83203 0 -16 7.16797 -16 16
s7.16797 16 16 16h42.668c32.3633 0 58.668 -26.3047 58.668 -58.668v-42.6641c0 -8.83203 -7.16797 -16 -16 -16zM346.668 266.668zM240 309.332h-117.332c-20.5898 0 -37.3359 16.7461 -37.3359 37.3359v42.6641c0 8.83203 7.16797 16 16 16h23.5547
c6.97656 24.5977 29.6523 42.668 56.4453 42.668c26.7969 0 49.4727 -18.0703 56.4492 -42.668h23.5508c8.83203 0 16 -7.16797 16 -16v-42.6641c0 -20.5898 -16.7461 -37.3359 -37.332 -37.3359zM117.332 373.332v-26.6641c0 -2.94531 2.39062 -5.33594 5.33594 -5.33594
h117.332c2.94531 0 5.33203 2.39062 5.33203 5.33594v26.6641h-21.332c-8.83203 0 -16 7.16797 -16 16c0 14.6992 -11.9688 26.668 -26.668 26.668s-26.6641 -11.9688 -26.6641 -26.668c0 -8.83203 -7.16797 -16 -16 -16h-21.3359zM117.332 373.332zM474.668 -64h-181.336
c-20.5859 0 -37.332 16.7461 -37.332 37.332v224c0 20.5898 16.7461 37.3359 37.332 37.3359h120.984c15.6562 0 30.3984 -6.10156 41.4688 -17.1953l39.0195 -39.0195c11.0938 -11.0938 17.1953 -25.8125 17.1953 -41.4727v-163.648
c0 -20.5859 -16.7461 -37.332 -37.332 -37.332zM293.332 202.668c-2.94141 0 -5.33203 -2.39062 -5.33203 -5.33594v-224c0 -2.94141 2.39062 -5.33203 5.33203 -5.33203h181.336c2.94141 0 5.33203 2.39062 5.33203 5.33203v163.648
c0 7.01953 -2.83594 13.8906 -7.80859 18.8594l-39.0195 39.0195c-4.96875 4.96875 -11.8398 7.80859 -18.8555 7.80859h-120.984zM293.332 202.668zM429.332 85.332h-96c-8.83203 0 -16 7.16797 -16 16s7.16797 16 16 16h96c8.83203 0 16 -7.16797 16 -16
s-7.16797 -16 -16 -16zM429.332 85.332zM429.332 21.332h-96c-8.83203 0 -16 7.16797 -16 16s7.16797 16 16 16h96c8.83203 0 16 -7.16797 16 -16s-7.16797 -16 -16 -16zM429.332 21.332z" />
    <glyph glyph-name="2065140" unicode="&#xf10f;" 
d="M98.9805 28.6094h-58.2256c-22.4736 0 -40.7549 18.2822 -40.7549 40.7598c0 8.45215 2.60938 16.6738 7.33496 23.126l100.682 145.718l-100.959 146.12c-4.44824 6.05469 -7.05762 14.2764 -7.05762 22.7285c0 22.4736 18.2812 40.7549 40.7549 40.7549h58.2256
c13.5781 0 26.2217 -6.82324 33.8594 -18.2559l116.286 -168.64c4.44727 -6.0293 7.05762 -14.251 7.05762 -22.708c0 -8.45215 -2.61035 -16.6738 -7.33887 -23.125l-116.167 -168.427c-7.47559 -11.2236 -20.1191 -18.0518 -33.6973 -18.0518zM40.7549 412.883
c-3.16406 0 -5.82129 -2.65234 -5.82129 -5.82129c0 -1.25781 0.396484 -2.23438 0.584961 -2.46875l108.106 -156.435c4.12305 -5.96191 4.12305 -13.8809 0 -19.8643l-107.83 -156.038c-0.464844 -0.652344 -0.861328 -1.62891 -0.861328 -2.88672
c0 -3.16895 2.65723 -5.8252 5.82129 -5.8252h58.2256c2.60547 0 4.12012 1.70117 4.79785 2.72461l116.609 169.058c0.464844 0.652344 0.861328 1.62891 0.861328 2.88672c0 1.25879 -0.396484 2.23926 -0.583984 2.46973l-116.725 169.267
c-0.839844 1.23633 -2.35449 2.93359 -4.95996 2.93359h-58.2256zM40.7549 412.883zM355.16 28.6094h-58.2217c-22.4736 0 -40.7549 18.2822 -40.7549 40.7598c0 8.45215 2.60547 16.6738 7.33496 23.126l100.678 145.718l-100.96 146.12
c-4.44727 6.05469 -7.05273 14.2764 -7.05273 22.7285c0 22.4736 18.2812 40.7549 40.7549 40.7549h58.2217c13.5771 0 26.2256 -6.82324 33.8633 -18.2559l116.286 -168.64c4.44727 -6.0293 7.05273 -14.251 7.05273 -22.708
c0 -8.45215 -2.60547 -16.6738 -7.33496 -23.125l-116.166 -168.427c-7.47559 -11.2236 -20.124 -18.0518 -33.7012 -18.0518zM296.938 412.883c-3.16895 0 -5.82129 -2.65234 -5.82129 -5.82129c0 -1.25781 0.396484 -2.23438 0.580078 -2.46875l108.11 -156.435
c4.12012 -5.96191 4.12012 -13.8809 0 -19.8643l-107.829 -156.038c-0.464844 -0.652344 -0.861328 -1.62891 -0.861328 -2.88672c0 -3.16895 2.65234 -5.8252 5.82129 -5.8252h58.2217c2.60938 0 4.12305 1.70117 4.79688 2.72461l116.61 169.058
c0.464844 0.652344 0.861328 1.62891 0.861328 2.88672c0 1.25879 -0.396484 2.23926 -0.580078 2.46973l-116.725 169.267c-0.84082 1.23633 -2.35449 2.93359 -4.96387 2.93359h-58.2217zM296.938 412.883z" />
    <glyph glyph-name="2065143" unicode="&#xf112;" 
d="M430.358 -63.9697c-12.9932 0 -26.0186 4.96094 -35.9424 14.8525l-138.415 138.389l-138.389 -138.389c-19.873 -19.8408 -52.1016 -19.8408 -71.9482 0l-30.7793 30.7842c-19.8467 19.8408 -19.8467 52.1025 0 71.9492l138.384 138.383l-138.384 138.389
c-19.8467 19.873 -19.8467 52.1338 0 71.9482l30.7793 30.7793c19.8145 19.8145 52.0752 19.8467 71.9219 0l138.415 -138.384l138.383 138.384c19.9053 19.8467 52.1348 19.8467 71.9492 0l30.7842 -30.7793c19.8408 -19.8467 19.8408 -52.1074 0 -71.9482
l-138.389 -138.389l138.389 -138.383c19.8408 -19.8467 19.8408 -52.1084 0 -71.9492l-30.7842 -30.7842c-9.91797 -9.8916 -22.9434 -14.8525 -35.9746 -14.8525zM256.001 141.81c5.77441 0 11.3154 -2.29004 15.374 -6.38086l153.762 -153.762
c2.84766 -2.81543 7.60156 -2.81543 10.417 0l30.7793 30.7793c2.84766 2.81543 2.81543 7.60156 0 10.4434l-153.762 153.735c-8.5 8.5 -8.5 22.2803 0 30.7793l153.762 153.763c2.81543 2.81543 2.84766 7.60156 0 10.417l-30.7793 30.752
c-2.8418 2.81543 -7.56934 2.81543 -10.4434 0l-153.735 -153.762c-8.14941 -8.1543 -22.5986 -8.1543 -30.7793 0l-153.763 153.762c-2.8418 2.81543 -7.60156 2.81543 -10.417 0l-30.752 -30.7842c-2.8418 -2.80957 -2.81543 -7.59668 0 -10.4434l153.762 -153.73
c8.5 -8.5 8.5 -22.2852 0 -30.7842l-153.762 -153.763c-2.81543 -2.81543 -2.8418 -7.60156 0 -10.4111l30.7842 -30.7852c2.8418 -2.81543 7.56934 -2.81543 10.4434 0l153.73 153.763c4.06348 4.12207 9.60449 6.41211 15.3789 6.41211zM256.001 141.81z" />
    <glyph glyph-name="2065142" unicode="&#xf111;" 
d="M256 314.668c-8.83203 0 -16 7.16797 -16 16v42.6641c0 8.83203 7.16797 16 16 16s16 -7.16797 16 -16v-42.6641c0 -8.83203 -7.16797 -16 -16 -16zM256 314.668zM256 -5.33203c-8.83203 0 -16 7.16797 -16 16v42.6641c0 8.83203 7.16797 16 16 16s16 -7.16797 16 -16
v-42.6641c0 -8.83203 -7.16797 -16 -16 -16zM256 -5.33203zM135.895 245.332c-2.71094 0 -5.46094 0.683594 -7.98047 2.15625l-36.9492 21.332c-7.65625 4.41797 -10.2812 14.1875 -5.86719 21.8477c4.41797 7.63672 14.168 10.2812 21.8477 5.84375l36.9492 -21.332
c7.63672 -4.41797 10.2617 -14.2109 5.84375 -21.8477c-2.92188 -5.14062 -8.29688 -8 -13.8438 -8zM135.895 245.332zM413.012 85.332c-2.70703 0 -5.46094 0.683594 -7.97656 2.15625l-36.9492 21.332c-7.63672 4.41797 -10.2617 14.2109 -5.84766 21.8477
c4.39453 7.63672 14.1875 10.3008 21.8477 5.84375l36.9492 -21.332c7.63672 -4.41797 10.2617 -14.2109 5.84375 -21.8477c-2.94141 -5.14062 -8.32031 -8 -13.8672 -8zM413.012 85.332zM98.9883 85.332c-5.54688 0 -10.9258 2.85938 -13.8672 8
c-4.41797 7.66016 -1.79297 17.4297 5.84375 21.8477l36.9492 21.332c7.67969 4.4375 17.4531 1.79297 21.8477 -5.84375c4.41406 -7.66016 1.78906 -17.4297 -5.84766 -21.8477l-36.9492 -21.332c-2.51562 -1.47266 -5.26953 -2.15625 -7.97656 -2.15625zM98.9883 85.332z
M376.105 245.332c-5.54688 0 -10.9219 2.85938 -13.8672 8c-4.41406 7.66016 -1.78906 17.4297 5.84766 21.8477l36.9492 21.332c7.65625 4.4375 17.4492 1.76953 21.8438 -5.84375c4.41797 -7.66016 1.79297 -17.4297 -5.84375 -21.8477l-36.9492 -21.332
c-2.51953 -1.47266 -5.26953 -2.15625 -7.98047 -2.15625zM376.105 245.332zM256 -64c-141.164 0 -256 114.836 -256 256s114.836 256 256 256s256 -114.836 256 -256s-114.836 -256 -256 -256zM256 416c-123.52 0 -224 -100.48 -224 -224s100.48 -224 224 -224
s224 100.48 224 224s-100.48 224 -224 224zM256 416z" />
    <glyph glyph-name="2065145" unicode="&#xf114;" 
d="M421.332 -64c-50.0039 0 -90.6641 40.6836 -90.6641 90.668v58.6641h-149.336v-58.6641c0 -49.9844 -40.6602 -90.668 -90.6641 -90.668c-50.0078 0 -90.668 40.6836 -90.668 90.668s40.6602 90.6641 90.668 90.6641h58.6641v149.336h-58.6641
c-50.0078 0 -90.668 40.6797 -90.668 90.6641s40.6602 90.668 90.668 90.668c50.0039 0 90.6641 -40.6836 90.6641 -90.668v-58.6641h149.336v58.6641c0 49.9844 40.6602 90.668 90.6641 90.668c50.0078 0 90.668 -40.6836 90.668 -90.668
s-40.6602 -90.6641 -90.668 -90.6641h-58.6641v-149.336h58.6641c50.0078 0 90.668 -40.6797 90.668 -90.6641s-40.6602 -90.668 -90.668 -90.668zM362.668 85.332v-58.6641c0 -32.3633 26.3008 -58.668 58.6641 -58.668s58.668 26.3047 58.668 58.668
s-26.3047 58.6641 -58.668 58.6641h-58.6641zM90.668 85.332c-32.3633 0 -58.668 -26.3008 -58.668 -58.6641s26.3047 -58.668 58.668 -58.668s58.6641 26.3047 58.6641 58.668v58.6641h-58.6641zM181.332 117.332h149.336v149.336h-149.336v-149.336zM362.668 298.668
h58.6641c32.3633 0 58.668 26.3008 58.668 58.6641s-26.3047 58.668 -58.668 58.668s-58.6641 -26.3047 -58.6641 -58.668v-58.6641zM90.668 416c-32.3633 0 -58.668 -26.3047 -58.668 -58.668s26.3047 -58.6641 58.668 -58.6641h58.6641v58.6641
c0 32.3633 -26.3008 58.668 -58.6641 58.668zM90.668 416z" />
    <glyph glyph-name="2065144" unicode="&#xf113;" 
d="M26.3926 -64.001c-6.74512 0 -13.4893 2.56543 -18.6133 7.72754c-10.2871 10.2871 -10.2871 26.9648 0 37.251l459.308 459.308c10.2861 10.2861 26.9639 10.2861 37.251 0c10.2861 -10.2871 10.2861 -26.9648 0 -37.2578l-459.301 -459.301
c-5.16309 -5.13086 -11.9072 -7.72754 -18.6445 -7.72754zM26.3926 -64.001zM485.731 -64.001c-6.74414 0 -13.4824 2.56543 -18.6133 7.72754l-459.339 459.301c-10.2871 10.293 -10.2871 26.9707 0 37.2578c10.2871 10.2861 26.9648 10.2861 37.2578 0l459.301 -459.308
c10.2861 -10.2861 10.2861 -26.9639 0 -37.251c-5.16309 -5.13086 -11.9004 -7.72754 -18.6064 -7.72754zM485.731 -64.001z" />
    <glyph glyph-name="2065147" unicode="&#xf116;" 
d="M85.8301 -63.999c-47.0635 0 -85.334 38.2705 -85.334 85.334s38.2705 85.3369 85.334 85.3369s85.334 -38.2734 85.334 -85.3369c0 -14.5908 -3.75391 -28.9932 -10.8359 -41.6416c-15.0635 -26.9463 -43.6299 -43.6924 -74.498 -43.6924zM85.8301 74.6719
c-29.4189 0 -53.333 -23.9385 -53.333 -53.3369c0 -29.3994 23.9141 -53.334 53.333 -53.334c19.3047 0 37.1416 10.4736 46.5908 27.3291c4.41797 7.89062 6.74219 16.875 6.74219 26.0049c0 29.3984 -23.9141 53.3369 -53.333 53.3369zM85.8301 74.6719zM146.354 -28.4795
c-2.64453 0 -5.3125 0.660156 -7.78906 2.04688c-7.69922 4.30957 -10.4531 14.0596 -6.14453 21.7822l248.798 444.471c4.3291 7.69922 14.0596 10.4531 21.7822 6.14453c7.69922 -4.3125 10.4531 -14.0586 6.14062 -21.7822l-248.813 -444.47
c-2.94629 -5.24609 -8.36426 -8.19238 -13.9736 -8.19238zM146.354 -28.4795zM384.505 -63.999c-30.8721 0 -59.4395 16.7461 -74.498 43.7119c-7.08594 12.6289 -10.8398 27.0312 -10.8398 41.6221c0 47.0635 38.2734 85.3369 85.3379 85.3369
c47.0596 0 85.333 -38.2734 85.333 -85.3369s-38.2734 -85.334 -85.333 -85.334zM384.505 74.6719c-29.4229 0 -53.3379 -23.9385 -53.3379 -53.3369c0 -9.12988 2.32812 -18.1143 6.74219 -25.9854c9.4502 -16.875 27.2861 -27.3486 46.5957 -27.3486
c29.418 0 53.333 23.9346 53.333 53.334c0 29.3984 -23.915 53.3369 -53.333 53.3369zM384.505 74.6719zM323.979 -28.4795c-5.61328 0 -11.0508 2.94629 -13.9727 8.19238l-248.795 444.489c-4.3125 7.7041 -1.58203 17.4502 6.14062 21.7627
c7.74707 4.30859 17.4541 1.55469 21.7822 -6.14453l248.794 -444.49c4.31348 -7.70312 1.55957 -17.4531 -6.14062 -21.7822c-2.49609 -1.36719 -5.16406 -2.02734 -7.80859 -2.02734zM323.979 -28.4795z" />
    <glyph glyph-name="2065146" unicode="&#xf115;" 
d="M410.668 42.668h-245.336c-32.3633 0 -58.6641 26.3008 -58.6641 58.6641v288c0 32.3633 26.3008 58.668 58.6641 58.668h181.504c21.0586 0 41.6875 -8.53516 56.5547 -23.4453l42.4961 -42.4961c15.125 -15.125 23.4453 -35.2227 23.4453 -56.5742v-224.152
c0 -32.3633 -26.3008 -58.6641 -58.6641 -58.6641zM165.332 416c-14.6992 0 -26.6641 -11.9688 -26.6641 -26.668v-288c0 -14.6992 11.9648 -26.6641 26.6641 -26.6641h245.336c14.6992 0 26.6641 11.9648 26.6641 26.6641v224.152
c0 12.8203 -4.99219 24.8711 -14.0586 33.9414l-42.4961 42.4961c-8.9375 8.95703 -21.2891 14.0781 -33.9414 14.0781h-181.504zM165.332 416zM314.668 -64h-256c-32.3633 0 -58.668 26.3047 -58.668 58.668v341.332c0 32.3633 26.3047 58.668 58.668 58.668h10.6641
c8.83203 0 16 -7.16797 16 -16s-7.16797 -16 -16 -16h-10.6641c-14.6992 0 -26.668 -11.9688 -26.668 -26.668v-341.332c0 -14.6992 11.9688 -26.668 26.668 -26.668h256c14.6992 0 26.6641 11.9688 26.6641 26.668v10.6641c0 8.83203 7.16797 16 16 16s16 -7.16797 16 -16
v-10.6641c0 -32.3633 -26.3008 -58.668 -58.6641 -58.668zM314.668 -64zM368 266.668h-160c-8.83203 0 -16 7.16797 -16 16s7.16797 16 16 16h160c8.83203 0 16 -7.16797 16 -16s-7.16797 -16 -16 -16zM368 266.668zM368 202.668h-160c-8.83203 0 -16 7.16797 -16 16
s7.16797 16 16 16h160c8.83203 0 16 -7.16797 16 -16s-7.16797 -16 -16 -16zM368 202.668zM368 138.668h-160c-8.83203 0 -16 7.16797 -16 16s7.16797 16 16 16h160c8.83203 0 16 -7.16797 16 -16s-7.16797 -16 -16 -16zM368 138.668z" />
    <glyph glyph-name="2065156" unicode="&#xf11f;" 
d="M64 128c-35.2852 0 -64 28.7148 -64 64s28.7148 64 64 64s64 -28.7148 64 -64s-28.7148 -64 -64 -64zM64 224c-17.6445 0 -32 -14.3555 -32 -32s14.3555 -32 32 -32s32 14.3555 32 32s-14.3555 32 -32 32zM64 224zM64 320c-35.2852 0 -64 28.7148 -64 64
s28.7148 64 64 64s64 -28.7148 64 -64s-28.7148 -64 -64 -64zM64 416c-17.6445 0 -32 -14.3555 -32 -32s14.3555 -32 32 -32s32 14.3555 32 32s-14.3555 32 -32 32zM64 416zM64 -64c-35.2852 0 -64 28.7148 -64 64s28.7148 64 64 64s64 -28.7148 64 -64
s-28.7148 -64 -64 -64zM64 32c-17.6445 0 -32 -14.3555 -32 -32s14.3555 -32 32 -32s32 14.3555 32 32s-14.3555 32 -32 32zM64 32z" />
    <glyph glyph-name="2065157" unicode="&#xf120;" 
d="M15.9961 -63.9531c-4.09766 0 -8.19531 1.55859 -11.3086 4.69531c-6.25 6.25 -6.25 16.3828 0 22.6328l234.668 234.668c6.25 6.25 16.3828 6.25 22.6328 0s6.25 -16.3867 0 -22.6367l-234.664 -234.664c-3.13672 -3.13672 -7.23438 -4.69531 -11.3281 -4.69531z
M15.9961 -63.9531zM167.695 7.96094c-23.9141 0 -48.6836 3.22266 -74.4961 9.62109c-5.75781 1.42969 -10.2617 5.93359 -11.668 11.6914c-24 97.1523 -3.5625 178.391 64.3203 255.68c3.28516 3.71484 8.10547 5.69531 13.0781 5.39844
c4.94922 -0.339844 9.46875 -2.94531 12.2422 -7.08203c7.875 -11.7539 16.1094 -26.3242 21.7188 -42.1992c13.7188 27.9492 27.4336 65.5156 22.7617 97.3242c-0.875 5.91016 1.64453 11.8398 6.50781 15.3164c75.1133 53.9297 166.805 85.6328 272.555 94.25
c4.75781 0.300781 9.30078 -1.32031 12.6094 -4.62891c3.32812 -3.32812 5.01172 -7.93359 4.62891 -12.6055c-11.7773 -144.555 -52.9492 -239.895 -142.125 -329.07c-62.9102 -63.0156 -128.445 -93.6953 -202.133 -93.6953zM110.395 46.4258
c90.2812 -19.6484 163.711 4.60938 236.801 77.8672c79.3398 79.3398 118.016 164.332 131.113 289.984c-88.3828 -9.8125 -165.633 -37.0977 -229.973 -81.2578c4.05469 -69.293 -50.3672 -147.797 -52.8008 -151.254
c-4.37109 -6.20703 -12.4805 -8.46875 -19.4336 -5.50391c-6.97656 3.00781 -10.8594 10.4727 -9.34375 17.8984c3.5625 17.3008 -3.13672 36.8008 -11.0938 52.457c-47.6367 -61.5039 -61.7383 -124.371 -45.2695 -200.191zM110.395 46.4258z" />
    <glyph glyph-name="2065154" unicode="&#xf11d;" 
d="M256 320c-35.2852 0 -64 28.7148 -64 64s28.7148 64 64 64s64 -28.7148 64 -64s-28.7148 -64 -64 -64zM256 416c-17.6445 0 -32 -14.3555 -32 -32s14.3555 -32 32 -32s32 14.3555 32 32s-14.3555 32 -32 32zM256 416zM64 320c-35.2852 0 -64 28.7148 -64 64
s28.7148 64 64 64s64 -28.7148 64 -64s-28.7148 -64 -64 -64zM64 416c-17.6445 0 -32 -14.3555 -32 -32s14.3555 -32 32 -32s32 14.3555 32 32s-14.3555 32 -32 32zM64 416zM448 320c-35.2852 0 -64 28.7148 -64 64s28.7148 64 64 64s64 -28.7148 64 -64
s-28.7148 -64 -64 -64zM448 416c-17.6445 0 -32 -14.3555 -32 -32s14.3555 -32 32 -32s32 14.3555 32 32s-14.3555 32 -32 32zM448 416z" />
    <glyph glyph-name="2065155" unicode="&#xf11e;" 
d="M117.332 138.668c-29.418 0 -53.332 23.9336 -53.332 53.332s23.9141 53.332 53.332 53.332c29.4219 0 53.3359 -23.9336 53.3359 -53.332s-23.9141 -53.332 -53.3359 -53.332zM117.332 213.332c-11.7734 0 -21.332 -9.57812 -21.332 -21.332
s9.55859 -21.332 21.332 -21.332c11.7773 0 21.3359 9.57812 21.3359 21.332s-9.55859 21.332 -21.3359 21.332zM117.332 213.332zM256 138.668c-29.418 0 -53.332 23.9336 -53.332 53.332s23.9141 53.332 53.332 53.332s53.332 -23.9336 53.332 -53.332
s-23.9141 -53.332 -53.332 -53.332zM256 213.332c-11.7773 0 -21.332 -9.57812 -21.332 -21.332s9.55469 -21.332 21.332 -21.332s21.332 9.57812 21.332 21.332s-9.55469 21.332 -21.332 21.332zM256 213.332zM394.668 138.668
c-29.4219 0 -53.3359 23.9336 -53.3359 53.332s23.9141 53.332 53.3359 53.332c29.418 0 53.332 -23.9336 53.332 -53.332s-23.9141 -53.332 -53.332 -53.332zM394.668 213.332c-11.7773 0 -21.3359 -9.57812 -21.3359 -21.332s9.55859 -21.332 21.3359 -21.332
c11.7734 0 21.332 9.57812 21.332 21.332s-9.55859 21.332 -21.332 21.332zM394.668 213.332zM453.332 -64h-394.664c-32.3633 0 -58.668 26.3047 -58.668 58.668v394.664c0 32.3633 26.3047 58.668 58.668 58.668h394.664c32.3633 0 58.668 -26.3047 58.668 -58.668
v-394.664c0 -32.3633 -26.3047 -58.668 -58.668 -58.668zM58.668 416c-14.6992 0 -26.668 -11.9688 -26.668 -26.668v-394.664c0 -14.6992 11.9688 -26.668 26.668 -26.668h394.664c14.6992 0 26.668 11.9688 26.668 26.668v394.664
c0 14.6992 -11.9688 26.668 -26.668 26.668h-394.664zM58.668 416z" />
    <glyph glyph-name="2065152" unicode="&#xf11b;" 
d="M256 85.332c-8.83203 0 -16 7.16797 -16 16v330.668c0 8.83203 7.16797 16 16 16s16 -7.16797 16 -16v-330.668c0 -8.83203 -7.16797 -16 -16 -16zM256 85.332zM256 85.332c-4.09766 0 -8.19141 1.55859 -11.3086 4.69531l-85.332 85.332
c-6.25 6.25 -6.25 16.3828 0 22.6367c6.25 6.25 16.3828 6.25 22.6367 0l74.0234 -74.0273l74.0273 74.0273c6.25 6.25 16.3867 6.25 22.6367 0c6.25 -6.25391 6.25 -16.3867 0 -22.6367l-85.3359 -85.332c-3.15625 -3.13672 -7.25 -4.69531 -11.3477 -4.69531zM256 85.332z
M453.332 -64h-394.664c-32.3633 0 -58.668 26.3047 -58.668 58.668v96c0 8.83203 7.16797 16 16 16s16 -7.16797 16 -16v-96c0 -14.6992 11.9688 -26.668 26.668 -26.668h394.664c14.6992 0 26.668 11.9688 26.668 26.668v96c0 8.83203 7.16797 16 16 16s16 -7.16797 16 -16
v-96c0 -32.3633 -26.3047 -58.668 -58.668 -58.668zM453.332 -64z" />
    <glyph glyph-name="2065153" unicode="&#xf11c;" 
d="M256 -64c-141.164 0 -256 114.836 -256 256s114.836 256 256 256s256 -114.836 256 -256s-114.836 -256 -256 -256zM256 416c-123.52 0 -224 -100.48 -224 -224s100.48 -224 224 -224s224 100.48 224 224s-100.48 224 -224 224zM256 416zM117.332 138.668
c-29.418 0 -53.332 23.9336 -53.332 53.332s23.9141 53.332 53.332 53.332c29.4219 0 53.3359 -23.9336 53.3359 -53.332s-23.9141 -53.332 -53.3359 -53.332zM117.332 213.332c-11.7734 0 -21.332 -9.57812 -21.332 -21.332s9.55859 -21.332 21.332 -21.332
c11.7773 0 21.3359 9.57812 21.3359 21.332s-9.55859 21.332 -21.3359 21.332zM117.332 213.332zM256 138.668c-29.418 0 -53.332 23.9336 -53.332 53.332s23.9141 53.332 53.332 53.332s53.332 -23.9336 53.332 -53.332s-23.9141 -53.332 -53.332 -53.332zM256 213.332
c-11.7773 0 -21.332 -9.57812 -21.332 -21.332s9.55469 -21.332 21.332 -21.332s21.332 9.57812 21.332 21.332s-9.55469 21.332 -21.332 21.332zM256 213.332zM394.668 138.668c-29.4219 0 -53.3359 23.9336 -53.3359 53.332s23.9141 53.332 53.3359 53.332
c29.418 0 53.332 -23.9336 53.332 -53.332s-23.9141 -53.332 -53.332 -53.332zM394.668 213.332c-11.7773 0 -21.3359 -9.57812 -21.3359 -21.332s9.55859 -21.332 21.3359 -21.332c11.7734 0 21.332 9.57812 21.332 21.332s-9.55859 21.332 -21.332 21.332z
M394.668 213.332z" />
    <glyph glyph-name="2065150" unicode="&#xf119;" 
d="M176.586 139.691c-4.09375 0 -8.19141 1.55469 -11.3047 4.69141c-6.25 6.25 -6.25 16.3867 0 22.6367l158.398 158.398c6.25 6.25 16.3828 6.25 22.6367 0c6.25 -6.25 6.25 -16.3828 0 -22.6328l-158.402 -158.402
c-3.15625 -3.13672 -7.25391 -4.69141 -11.3281 -4.69141zM176.586 139.691zM334.965 139.691c-4.09375 0 -8.19141 1.55469 -11.3047 4.69141l-158.402 158.379c-6.25 6.25 -6.25 16.3867 0 22.6367s16.3867 6.25 22.6367 0l158.398 -158.402
c6.25 -6.25 6.25 -16.3828 0 -22.6328c-3.13672 -3.11719 -7.23047 -4.67188 -11.3281 -4.67188zM334.965 139.691zM375.988 21.332h-240c-5.58984 0 -10.7734 2.92578 -13.6719 7.67969l-119.98 197.336c-3.11328 5.09766 -3.11328 11.5195 0 16.6172l120 197.332
c2.87891 4.78125 8.08594 7.70312 13.6523 7.70312h240c5.58984 0 10.7734 -2.92188 13.6758 -7.67969l120 -197.332c3.11328 -5.10156 3.11328 -11.5234 0 -16.6211l-120 -197.332c-2.90234 -4.80078 -8.08594 -7.70312 -13.6758 -7.70312zM144.992 53.332h221.996
l110.27 181.336l-110.27 181.332h-221.996l-110.273 -181.332zM144.992 53.332z" />
    <glyph glyph-name="2065151" unicode="&#xf11a;" 
d="M256 -64c-141.164 0 -256 114.836 -256 256s114.836 256 256 256s256 -114.836 256 -256s-114.836 -256 -256 -256zM256 416c-123.52 0 -224 -100.48 -224 -224s100.48 -224 224 -224s224 100.48 224 224s-100.48 224 -224 224zM256 416zM256 85.332
c-58.8164 0 -106.668 47.8516 -106.668 106.668s47.8516 106.668 106.668 106.668s106.668 -47.8516 106.668 -106.668s-47.8516 -106.668 -106.668 -106.668zM256 266.668c-41.1719 0 -74.668 -33.4961 -74.668 -74.668s33.4961 -74.668 74.668 -74.668
s74.668 33.4961 74.668 74.668s-33.4961 74.668 -74.668 74.668zM256 266.668z" />
    <glyph glyph-name="2065158" unicode="&#xf121;" 
d="M208 -64c-2.58203 0 -5.18359 0.617188 -7.55078 1.89844c-5.20703 2.77344 -8.44922 8.21484 -8.44922 14.1016v205.227c0 7.46484 -3.13672 14.6367 -8.64062 19.668l-171.262 156.867c-7.70312 7.08203 -12.0977 17.1094 -12.0977 27.5195v49.3867
c0 20.5859 16.7461 37.332 37.332 37.332h437.336c20.5859 0 37.332 -16.7461 37.332 -37.332v-49.3867c0 -10.4102 -4.39453 -20.4375 -12.0742 -27.5195l-171.242 -156.887c-5.54688 -5.01172 -8.68359 -12.1836 -8.68359 -19.6484v-129.793
c0 -12.5 -6.20703 -24.125 -16.6172 -31.0586l-86.5078 -57.6641c-2.66797 -1.81641 -5.76172 -2.71094 -8.875 -2.71094zM37.332 416c-2.94141 0 -5.33203 -2.39062 -5.33203 -5.33203v-49.3867c0 -1.49609 0.640625 -2.92578 1.75 -3.94922l171.199 -156.84
c12.0977 -11.0938 19.0508 -26.8594 19.0508 -43.2656v-175.316l61.6328 41.0859c1.47266 0.984375 2.36719 2.64844 2.36719 4.4375v129.793c0 16.4258 6.93359 32.1914 19.0703 43.2656l171.203 156.863c1.08594 1 1.72656 2.42969 1.72656 3.92578v49.3867
c0 2.94141 -2.39062 5.33203 -5.33203 5.33203h-437.336zM37.332 416z" />
    <glyph glyph-name="2065159" unicode="&#xf122;" 
d="M16 -64c-8.83203 0 -16 7.16797 -16 16v480c0 8.83203 7.16797 16 16 16s16 -7.16797 16 -16v-480c0 -8.83203 -7.16797 -16 -16 -16zM16 -64zM346.668 170.668h-330.668c-8.83203 0 -16 7.16797 -16 16s7.16797 16 16 16h330.668
c2.94141 0 5.33203 2.38672 5.33203 5.33203v202.668c0 2.94141 -2.39062 5.33203 -5.33203 5.33203h-330.668c-8.83203 0 -16 7.16797 -16 16s7.16797 16 16 16h330.668c20.5859 0 37.332 -16.7461 37.332 -37.332v-202.668c0 -20.5859 -16.7461 -37.332 -37.332 -37.332z
M346.668 170.668z" />
    <glyph glyph-name="2065127" unicode="&#xf102;" 
d="M256 -64c-141.164 0 -256 114.836 -256 256s114.836 256 256 256s256 -114.836 256 -256s-114.836 -256 -256 -256zM256 416c-123.52 0 -224 -100.48 -224 -224s100.48 -224 224 -224s224 100.48 224 224s-100.48 224 -224 224zM256 416zM256 42.668
c-8.83203 0 -16 7.16797 -16 16v266.664c0 8.83203 7.16797 16 16 16s16 -7.16797 16 -16v-266.664c0 -8.83203 -7.16797 -16 -16 -16zM256 42.668zM341.332 224c-4.09375 0 -8.19141 1.55859 -11.3047 4.69141l-74.0273 74.0078l-74.0273 -74.0273
c-6.25 -6.25 -16.3828 -6.25 -22.6328 0s-6.25 16.3828 0 22.6367l85.332 85.332c6.25 6.25 16.3828 6.25 22.6367 0l85.332 -85.332c6.25 -6.25391 6.25 -16.3867 0 -22.6367c-3.11719 -3.11328 -7.21094 -4.67188 -11.3086 -4.67188zM341.332 224z" />
    <glyph glyph-name="2065126" unicode="&#xf101;" 
d="M453.332 -64h-394.664c-32.3633 0 -58.668 26.3047 -58.668 58.668v394.664c0 32.3633 26.3047 58.668 58.668 58.668h394.664c32.3633 0 58.668 -26.3047 58.668 -58.668v-394.664c0 -32.3633 -26.3047 -58.668 -58.668 -58.668zM58.668 416
c-14.6992 0 -26.668 -11.9688 -26.668 -26.668v-394.664c0 -14.6992 11.9688 -26.668 26.668 -26.668h394.664c14.6992 0 26.668 11.9688 26.668 26.668v394.664c0 14.6992 -11.9688 26.668 -26.668 26.668h-394.664zM58.668 416zM256 42.668c-8.83203 0 -16 7.16797 -16 16
v266.664c0 8.83203 7.16797 16 16 16s16 -7.16797 16 -16v-266.664c0 -8.83203 -7.16797 -16 -16 -16zM256 42.668zM256 42.668c-4.09766 0 -8.19141 1.55469 -11.3086 4.69141l-85.332 85.332c-6.25 6.25391 -6.25 16.3867 0 22.6367s16.3828 6.25 22.6367 0
l74.0234 -74.0273l74.0273 74.0273c6.25 6.25 16.3867 6.25 22.6367 0s6.25 -16.3828 0 -22.6367l-85.3359 -85.332c-3.15625 -3.13672 -7.25 -4.69141 -11.3477 -4.69141zM256 42.668z" />
    <glyph glyph-name="2065125" unicode="&#xf100;" 
d="M256 -64c-141.164 0 -256 114.836 -256 256s114.836 256 256 256s256 -114.836 256 -256s-114.836 -256 -256 -256zM256 416c-123.52 0 -224 -100.48 -224 -224s100.48 -224 224 -224s224 100.48 224 224s-100.48 224 -224 224zM256 416zM256 42.668
c-8.83203 0 -16 7.16797 -16 16v266.664c0 8.83203 7.16797 16 16 16s16 -7.16797 16 -16v-266.664c0 -8.83203 -7.16797 -16 -16 -16zM256 42.668zM256 42.668c-4.09766 0 -8.19141 1.55469 -11.3086 4.69141l-85.332 85.332c-6.25 6.25391 -6.25 16.3867 0 22.6367
s16.3828 6.25 22.6367 0l74.0234 -74.0273l74.0273 74.0273c6.25 6.25 16.3867 6.25 22.6367 0s6.25 -16.3828 0 -22.6367l-85.3359 -85.332c-3.15625 -3.13672 -7.25 -4.69141 -11.3477 -4.69141zM256 42.668z" />
    <glyph glyph-name="2065129" unicode="&#xf104;" 
d="M154.676 234.66h-138.664c-8.83203 0 -16 7.16797 -16 16v138.668c0 8.83203 7.16797 16 16 16s16 -7.16797 16 -16v-122.668h122.664c8.83203 0 16 -7.16797 16 -16s-7.16797 -16 -16 -16zM154.676 234.66zM389.344 175.996h-133.332c-8.83203 0 -16 7.16797 -16 16
v133.332c0 8.83203 7.16797 16 16 16s16 -7.16797 16 -16v-117.332h117.332c8.83203 0 16 -7.16797 16 -16s-7.16797 -16 -16 -16zM389.344 175.996zM256.012 -64.0039c-68.4805 0 -132.758 26.6641 -180.93 75.1133c-6.25 6.27344 -6.20703 16.4062 0.0429688 22.6367
c6.25 6.22656 16.3828 6.20703 22.6328 -0.0429688c42.1562 -42.3906 98.3477 -65.707 158.254 -65.707c123.52 0 224 100.48 224 224s-100.48 224 -224 224c-105.344 0 -199.746 -71.168 -224.473 -169.262c-2.17578 -8.57422 -11.0078 -13.7578 -19.4336 -11.582
c-8.57422 2.15625 -13.7578 10.8594 -11.625 19.4336c28.2852 112.066 135.742 193.41 255.531 193.41c141.16 0 256 -114.84 256 -256c0 -141.164 -114.84 -256 -256 -256zM256.012 -64.0039z" />
    <glyph glyph-name="2065128" unicode="&#xf103;" 
d="M453.332 -64h-394.664c-32.3633 0 -58.668 26.3047 -58.668 58.668v394.664c0 32.3633 26.3047 58.668 58.668 58.668h394.664c32.3633 0 58.668 -26.3047 58.668 -58.668v-394.664c0 -32.3633 -26.3047 -58.668 -58.668 -58.668zM58.668 416
c-14.6992 0 -26.668 -11.9688 -26.668 -26.668v-394.664c0 -14.6992 11.9688 -26.668 26.668 -26.668h394.664c14.6992 0 26.668 11.9688 26.668 26.668v394.664c0 14.6992 -11.9688 26.668 -26.668 26.668h-394.664zM58.668 416zM256 42.668c-8.83203 0 -16 7.16797 -16 16
v266.664c0 8.83203 7.16797 16 16 16s16 -7.16797 16 -16v-266.664c0 -8.83203 -7.16797 -16 -16 -16zM256 42.668zM341.332 224c-4.09375 0 -8.19141 1.55859 -11.3047 4.69141l-74.0273 74.0078l-74.0273 -74.0273c-6.25 -6.25 -16.3828 -6.25 -22.6328 0
s-6.25 16.3828 0 22.6367l85.332 85.332c6.25 6.25 16.3828 6.25 22.6367 0l85.332 -85.332c6.25 -6.25391 6.25 -16.3867 0 -22.6367c-3.11719 -3.11328 -7.21094 -4.67188 -11.3086 -4.67188zM341.332 224z" />
    <glyph glyph-name="2065130" unicode="&#xf105;" 
d="M224.359 21.332c-94.0977 0 -170.664 76.5664 -170.664 170.668s76.5664 170.668 170.664 170.668c94.1016 0 170.668 -76.5664 170.668 -170.668s-76.5664 -170.668 -170.668 -170.668zM224.359 330.668c-76.457 0 -138.664 -62.2109 -138.664 -138.668
s62.207 -138.668 138.664 -138.668c76.4609 0 138.668 62.2109 138.668 138.668s-62.207 138.668 -138.668 138.668zM224.359 330.668zM224.359 384c-8.83203 0 -16 7.16797 -16 16v32c0 8.83203 7.16797 16 16 16s16 -7.16797 16 -16v-32c0 -8.83203 -7.16797 -16 -16 -16z
M224.359 384zM224.359 384c-8.83203 0 -16 7.16797 -16 16v32c0 8.83203 7.16797 16 16 16s16 -7.16797 16 -16v-32c0 -8.83203 -7.16797 -16 -16 -16zM224.359 384zM224.359 384c-8.83203 0 -16 7.16797 -16 16v32c0 8.83203 7.16797 16 16 16s16 -7.16797 16 -16v-32
c0 -8.83203 -7.16797 -16 -16 -16zM224.359 384zM224.359 384c-8.83203 0 -16 7.16797 -16 16v32c0 8.83203 7.16797 16 16 16s16 -7.16797 16 -16v-32c0 -8.83203 -7.16797 -16 -16 -16zM224.359 384zM44.2227 280c-2.71094 0 -5.46094 0.683594 -7.98047 2.15625
l-27.7305 16c-7.66016 4.41406 -10.2852 14.1836 -5.86719 21.8438c4.41406 7.63672 14.1641 10.3047 21.8438 5.84375l27.7344 -16c7.66016 -4.41406 10.2812 -14.1836 5.86719 -21.8438c-2.96484 -5.14062 -8.34375 -8 -13.8672 -8zM44.2227 280zM432.191 56
c-2.71094 0 -5.46094 0.683594 -7.98047 2.15625l-27.7305 16c-7.64062 4.41406 -10.2617 14.207 -5.84766 21.8438c4.41797 7.63672 14.1641 10.2812 21.8477 5.84375l27.7305 -16c7.63672 -4.41406 10.2617 -14.207 5.84766 -21.8438
c-2.94531 -5.14062 -8.32031 -8 -13.8672 -8zM432.191 56zM44.2227 280c-2.71094 0 -5.46094 0.683594 -7.98047 2.15625l-27.7305 16c-7.66016 4.41406 -10.2852 14.1836 -5.86719 21.8438c4.41406 7.63672 14.1641 10.3047 21.8438 5.84375l27.7344 -16
c7.66016 -4.41406 10.2812 -14.1836 5.86719 -21.8438c-2.96484 -5.14062 -8.34375 -8 -13.8672 -8zM44.2227 280zM432.191 56c-2.71094 0 -5.46094 0.683594 -7.98047 2.15625l-27.7305 16c-7.64062 4.41406 -10.2617 14.207 -5.84766 21.8438
c4.41797 7.63672 14.1641 10.2812 21.8477 5.84375l27.7305 -16c7.63672 -4.41406 10.2617 -14.207 5.84766 -21.8438c-2.94531 -5.14062 -8.32031 -8 -13.8672 -8zM432.191 56zM44.2227 280c-2.71094 0 -5.46094 0.683594 -7.98047 2.15625l-27.7305 16
c-7.66016 4.41406 -10.2852 14.1836 -5.86719 21.8438c4.41406 7.63672 14.1641 10.3047 21.8438 5.84375l27.7344 -16c7.66016 -4.41406 10.2812 -14.1836 5.86719 -21.8438c-2.96484 -5.14062 -8.34375 -8 -13.8672 -8zM44.2227 280zM432.191 56
c-2.71094 0 -5.46094 0.683594 -7.98047 2.15625l-27.7305 16c-7.64062 4.41406 -10.2617 14.207 -5.84766 21.8438c4.41797 7.63672 14.1641 10.2812 21.8477 5.84375l27.7305 -16c7.63672 -4.41406 10.2617 -14.207 5.84766 -21.8438
c-2.94531 -5.14062 -8.32031 -8 -13.8672 -8zM432.191 56zM44.2227 280c-2.71094 0 -5.46094 0.683594 -7.98047 2.15625l-27.7305 16c-7.66016 4.41406 -10.2852 14.1836 -5.86719 21.8438c4.41406 7.63672 14.1641 10.3047 21.8438 5.84375l27.7344 -16
c7.66016 -4.41406 10.2812 -14.1836 5.86719 -21.8438c-2.96484 -5.14062 -8.34375 -8 -13.8672 -8zM44.2227 280zM432.191 56c-2.71094 0 -5.46094 0.683594 -7.98047 2.15625l-27.7305 16c-7.64062 4.41406 -10.2617 14.207 -5.84766 21.8438
c4.41797 7.63672 14.1641 10.2812 21.8477 5.84375l27.7305 -16c7.63672 -4.41406 10.2617 -14.207 5.84766 -21.8438c-2.94531 -5.14062 -8.32031 -8 -13.8672 -8zM432.191 56zM16.5312 56c-5.54688 0 -10.9219 2.85938 -13.8672 8
c-4.41406 7.66016 -1.78906 17.4297 5.84766 21.8438l27.7305 16c7.68359 4.4375 17.4531 1.81641 21.8477 -5.84375c4.41406 -7.66016 1.79297 -17.4297 -5.84766 -21.8438l-27.7305 -16c-2.51953 -1.47266 -5.26953 -2.15625 -7.98047 -2.15625zM16.5312 56zM404.5 280
c-5.54688 0 -10.9219 2.85938 -13.8672 8c-4.41406 7.66016 -1.79297 17.4297 5.84766 21.8438l27.7305 16c7.67969 4.46094 17.4297 1.79297 21.8477 -5.84375c4.41406 -7.66016 1.78906 -17.4297 -5.84766 -21.8438l-27.7305 -16
c-2.51953 -1.47266 -5.26953 -2.15625 -7.98047 -2.15625zM404.5 280zM16.5312 56c-5.54688 0 -10.9219 2.85938 -13.8672 8c-4.41406 7.66016 -1.78906 17.4297 5.84766 21.8438l27.7305 16c7.68359 4.4375 17.4531 1.81641 21.8477 -5.84375
c4.41406 -7.66016 1.79297 -17.4297 -5.84766 -21.8438l-27.7305 -16c-2.51953 -1.47266 -5.26953 -2.15625 -7.98047 -2.15625zM16.5312 56zM404.5 280c-5.54688 0 -10.9219 2.85938 -13.8672 8c-4.41406 7.66016 -1.79297 17.4297 5.84766 21.8438l27.7305 16
c7.67969 4.46094 17.4297 1.79297 21.8477 -5.84375c4.41406 -7.66016 1.78906 -17.4297 -5.84766 -21.8438l-27.7305 -16c-2.51953 -1.47266 -5.26953 -2.15625 -7.98047 -2.15625zM404.5 280zM16.5312 56c-5.54688 0 -10.9219 2.85938 -13.8672 8
c-4.41406 7.66016 -1.78906 17.4297 5.84766 21.8438l27.7305 16c7.68359 4.4375 17.4531 1.81641 21.8477 -5.84375c4.41406 -7.66016 1.79297 -17.4297 -5.84766 -21.8438l-27.7305 -16c-2.51953 -1.47266 -5.26953 -2.15625 -7.98047 -2.15625zM16.5312 56zM404.5 280
c-5.54688 0 -10.9219 2.85938 -13.8672 8c-4.41406 7.66016 -1.79297 17.4297 5.84766 21.8438l27.7305 16c7.67969 4.46094 17.4297 1.79297 21.8477 -5.84375c4.41406 -7.66016 1.78906 -17.4297 -5.84766 -21.8438l-27.7305 -16
c-2.51953 -1.47266 -5.26953 -2.15625 -7.98047 -2.15625zM404.5 280zM16.5312 56c-5.54688 0 -10.9219 2.85938 -13.8672 8c-4.41406 7.66016 -1.78906 17.4297 5.84766 21.8438l27.7305 16c7.68359 4.4375 17.4531 1.81641 21.8477 -5.84375
c4.41406 -7.66016 1.79297 -17.4297 -5.84766 -21.8438l-27.7305 -16c-2.51953 -1.47266 -5.26953 -2.15625 -7.98047 -2.15625zM16.5312 56zM404.5 280c-5.54688 0 -10.9219 2.85938 -13.8672 8c-4.41406 7.66016 -1.79297 17.4297 5.84766 21.8438l27.7305 16
c7.67969 4.46094 17.4297 1.79297 21.8477 -5.84375c4.41406 -7.66016 1.78906 -17.4297 -5.84766 -21.8438l-27.7305 -16c-2.51953 -1.47266 -5.26953 -2.15625 -7.98047 -2.15625zM404.5 280zM224.359 -64c-8.83203 0 -16 7.16797 -16 16v32c0 8.83203 7.16797 16 16 16
s16 -7.16797 16 -16v-32c0 -8.83203 -7.16797 -16 -16 -16zM224.359 -64z" />
    <glyph glyph-name="2065131" unicode="&#xf106;" 
d="M256 -64c-141.164 0 -256 114.836 -256 256s114.836 256 256 256s256 -114.836 256 -256s-114.836 -256 -256 -256zM256 416c-123.52 0 -224 -100.48 -224 -224s100.48 -224 224 -224s224 100.48 224 224s-100.48 224 -224 224zM256 416zM256 21.332
c-94.1016 0 -170.668 76.5664 -170.668 170.668s76.5664 170.668 170.668 170.668s170.668 -76.5664 170.668 -170.668s-76.5664 -170.668 -170.668 -170.668zM256 330.668c-76.457 0 -138.668 -62.2109 -138.668 -138.668s62.2109 -138.668 138.668 -138.668
s138.668 62.2109 138.668 138.668s-62.2109 138.668 -138.668 138.668zM256 330.668zM256 106.668c-47.0625 0 -85.332 38.2695 -85.332 85.332s38.2695 85.332 85.332 85.332s85.332 -38.2695 85.332 -85.332s-38.2695 -85.332 -85.332 -85.332zM256 245.332
c-29.3984 0 -53.332 -23.9336 -53.332 -53.332s23.9336 -53.332 53.332 -53.332s53.332 23.9336 53.332 53.332s-23.9336 53.332 -53.332 53.332zM256 245.332z" />
    <glyph glyph-name="2065132" unicode="&#xf107;" 
d="M256 -64c-141.164 0 -256 114.836 -256 256s114.836 256 256 256s256 -114.836 256 -256s-114.836 -256 -256 -256zM256 416c-123.52 0 -224 -100.48 -224 -224s100.48 -224 224 -224s224 100.48 224 224s-100.48 224 -224 224zM256 416zM232 106.668
c-4.09766 0 -8.19141 1.55469 -11.3086 4.69141l-69.332 69.332c-6.25 6.25391 -6.25 16.3867 0 22.6367s16.3828 6.25 22.6367 0l58.0234 -58.0273l127.363 127.359c6.25 6.25 16.3828 6.25 22.6328 0s6.25 -16.3828 0 -22.6328l-138.668 -138.668
c-3.15625 -3.13672 -7.25 -4.69141 -11.3477 -4.69141zM232 106.668z" />
    <glyph glyph-name="2065133" unicode="&#xf108;" 
d="M184.808 44.2441c-11.1611 0 -21.6289 4.34082 -29.498 12.2314l-143.091 143.092c-16.293 16.2666 -16.293 42.7383 0 59.0264l33.7197 33.7207c16.2666 16.293 42.7598 16.293 59.0264 0l79.8428 -79.8428l222.961 222.935c16.2666 16.292 42.7598 16.292 59.0264 0
l33.7207 -33.7207c7.89453 -7.89551 12.2354 -18.3623 12.2354 -29.502c0 -11.1357 -4.34082 -21.6289 -12.2354 -29.498l-286.184 -286.184c-7.89062 -7.89453 -18.3623 -12.2578 -29.5244 -12.2578zM201.668 69.1182h0.240234h-0.240234zM75.4414 268.777
c-1.52832 0 -3.05273 -0.572266 -4.22266 -1.74219l-33.7207 -33.7207c-2.34082 -2.33594 -2.34082 -6.10449 0 -8.44141l143.092 -143.092c2.24023 -2.26562 6.2002 -2.26562 8.44043 0l286.184 286.184c2.33594 2.33691 2.33594 6.10547 0 8.44141l-33.7207 33.7207
c-2.33984 2.33984 -6.1084 2.33984 -8.44531 0l-235.598 -235.599c-6.9873 -6.9873 -18.3193 -6.9873 -25.3057 0l-92.5068 92.4844c-1.14453 1.19238 -2.64648 1.76465 -4.19629 1.76465zM75.4414 268.777z" />
    <glyph glyph-name="2065134" unicode="&#xf109;" 
d="M245.332 106.668c-4.09375 0 -8.19141 1.55469 -11.3047 4.69141l-69.3359 69.332c-6.25 6.25391 -6.25 16.3867 0 22.6367c6.25391 6.25 16.3867 6.25 22.6367 0l58.0273 -58.0273l106.027 106.027c6.25 6.25 16.3828 6.25 22.6328 0s6.25 -16.3828 0 -22.6367
l-117.332 -117.332c-3.16016 -3.13672 -7.25391 -4.69141 -11.3516 -4.69141zM245.332 106.668zM453.332 -64h-394.664c-32.3633 0 -58.668 26.3047 -58.668 58.668v394.664c0 32.3633 26.3047 58.668 58.668 58.668h394.664c32.3633 0 58.668 -26.3047 58.668 -58.668
v-394.664c0 -32.3633 -26.3047 -58.668 -58.668 -58.668zM58.668 416c-14.6992 0 -26.668 -11.9688 -26.668 -26.668v-394.664c0 -14.6992 11.9688 -26.668 26.668 -26.668h394.664c14.6992 0 26.668 11.9688 26.668 26.668v394.664
c0 14.6992 -11.9688 26.668 -26.668 26.668h-394.664zM58.668 416z" />
    <glyph glyph-name="2065135" unicode="&#xf10a;" 
d="M177.099 93.7451c-4.94336 0 -9.89062 1.88184 -13.6504 5.66992l-157.788 157.788c-7.54688 7.54688 -7.54688 19.7832 0 27.3301c7.54785 7.54688 19.7832 7.54688 27.335 0l144.132 -144.132l301.92 301.919c7.54785 7.54785 19.7832 7.54785 27.3301 0
c7.54785 -7.54688 7.54785 -19.7871 0 -27.334l-315.57 -315.571c-3.81641 -3.78809 -8.75977 -5.66992 -13.708 -5.66992zM177.099 93.7451z" />
    <glyph glyph-name="2065136" unicode="&#xf10b;" 
d="M234.668 -21.3398c-129.387 0 -234.668 105.277 -234.668 234.664s105.281 234.668 234.668 234.668c44.9922 0 88.7656 -12.8203 126.59 -37.0977c7.42578 -4.78125 9.60156 -14.6797 4.82031 -22.125c-4.79688 -7.44531 -14.6758 -9.59766 -22.1211 -4.82031
c-32.6406 20.9727 -70.4414 32.043 -109.289 32.043c-111.746 0 -202.668 -90.9219 -202.668 -202.668c0 -111.742 90.9219 -202.664 202.668 -202.664c111.742 0 202.664 90.9219 202.664 202.664c0 6.67969 -0.320312 13.293 -0.9375 19.7969
c-0.851562 8.8125 5.58984 16.6211 14.3789 17.4727c8.83203 0.8125 16.6172 -5.58984 17.4727 -14.3789c0.722656 -7.53125 1.08594 -15.168 1.08594 -22.8906c0 -129.387 -105.277 -234.664 -234.664 -234.664zM234.668 -21.3398zM261.332 159.992
c-4.09375 0 -8.19141 1.55859 -11.3047 4.69141l-96 96c-6.25 6.25391 -6.25 16.3867 0 22.6367s16.3828 6.25 22.6328 0l84.6953 -84.6953l223.336 223.34c6.25391 6.25 16.3867 6.25 22.6367 0s6.25 -16.3828 0 -22.6328l-234.668 -234.668
c-3.13672 -3.11328 -7.23047 -4.67188 -11.3281 -4.67188zM261.332 159.992z" />
    <glyph glyph-name="2065137" unicode="&#xf10c;" 
d="M324.082 -32.0586c-7.55078 0 -14.9961 2.32812 -21.375 6.91406l-59.7969 42.9219c-1.55859 1.04688 -4.14062 1.06641 -5.99609 -0.191406l-59.5195 -42.7109c-10.6641 -7.50781 -24 -8.9375 -35.7734 -4.00781c-11.7344 4.92578 -19.9922 15.3789 -22.0625 27.9648
l-12.0742 72.6836c-0.339844 2.00391 -1.91797 3.58594 -3.94531 3.92578l-72.7031 12.0742c-12.5664 2.07031 -23.0195 10.3047 -27.9492 22.0586c-4.94922 11.7969 -3.47656 25.1328 3.94922 35.6484l42.9844 59.9023c1.06641 1.55859 1.06641 4.14062 -0.191406 5.99609
l-42.6641 59.457c-7.48828 10.4297 -8.98438 23.7227 -4.07812 35.582c4.91016 11.8633 15.3828 20.1836 28.0117 22.25l72.6836 12.0781c2.00391 0.339844 3.58203 1.91797 3.92578 3.94531l12.0742 72.7031c2.07031 12.5664 10.3047 22.9961 22.0586 27.9258
c11.7773 4.97266 25.1289 3.5 35.6484 -3.94531l59.9023 -42.9883c1.70703 -1.21484 4.03125 -1.23828 5.73828 0.0234375l59.7578 42.8984c10.4297 7.46875 23.7422 8.96094 35.582 4.05469c11.8633 -4.90625 20.1602 -15.3828 22.25 -28.0117l4.05469 -24.4062
c1.44922 -8.72266 -4.4375 -16.957 -13.1641 -18.4102c-8.74609 -1.40625 -16.957 4.4375 -18.4102 13.1641l-4.05469 24.4492c-0.359375 2.28125 -1.98047 3.26172 -2.92188 3.64844c-0.917969 0.402344 -2.79297 0.851562 -4.67188 -0.492188l-59.7734 -42.9219
c-12.8867 -9.19531 -30.1445 -9.19531 -43.0078 -0.0234375l-59.8398 42.9453c-1.90234 1.34375 -3.80078 0.894531 -4.71484 0.511719c-1.10938 -0.46875 -2.49609 -1.47266 -2.85938 -3.64844l-12.0977 -72.7461c-2.58203 -15.5078 -14.7188 -27.6484 -30.2305 -30.2305
l-72.7227 -12.0938c-2.28516 -0.363281 -3.26562 -1.98438 -3.64844 -2.92578c-0.40625 -0.9375 -0.855469 -2.79297 0.488281 -4.67188l42.0703 -58.5156c9.75 -14.25 9.75 -31.3164 1.04688 -44.0117l-43.1172 -60.0742
c-1.34375 -1.89844 -0.894531 -3.79688 -0.511719 -4.73438c0.472656 -1.10938 1.47266 -2.49609 3.64844 -2.85938l72.7461 -12.0977c15.5117 -2.57812 27.6484 -14.7188 30.2305 -30.2266l12.0742 -72.7266c0.363281 -2.19922 1.77344 -3.19922 2.85938 -3.66797
c0.917969 -0.386719 2.79688 -0.832031 4.84375 0.574219l59.668 42.8359c12.9922 8.89844 30.0586 8.89844 42.7539 0.195312l60.0742 -43.1172c1.875 -1.34375 3.71094 -0.894531 4.67188 -0.488281c0.917969 0.382812 2.55859 1.36328 2.92188 3.625l12.0977 72.7461
c2.57812 15.5117 14.7188 27.6484 30.2266 30.2305l72.7266 12.0742c2.19922 0.363281 3.19922 1.76953 3.66797 2.85938c0.386719 0.9375 0.855469 2.81641 -0.574219 4.84375l-42.8359 59.668c-5.14453 7.16797 -3.52344 17.1719 3.66797 22.3359
c7.16797 5.12109 17.1953 3.5 22.3359 -3.66797l42.9219 -59.8008c7.48828 -10.6445 8.96094 -23.9766 4.01172 -35.7734c-4.92969 -11.7344 -15.3828 -19.9883 -27.9688 -22.0586l-72.6836 -12.0742c-2.00391 -0.34375 -3.58203 -1.92188 -3.92578 -3.94922
l-12.0742 -72.7031c-2.06641 -12.5859 -10.3867 -23.0625 -22.2266 -27.9883c-4.60938 -1.83594 -9.42969 -2.75391 -14.2109 -2.75391zM324.082 -32.0586zM261.383 149.277c-4.09375 0 -8.19141 1.55469 -11.3047 4.69141l-96 96c-6.25 6.25 -6.25 16.3828 0 22.6367
c6.25 6.25 16.3828 6.25 22.6328 0l84.6953 -84.6953l223.34 223.34c6.25 6.25 16.3828 6.25 22.6328 0s6.25 -16.3828 0 -22.6367l-234.668 -234.664c-3.13281 -3.11719 -7.23047 -4.67188 -11.3281 -4.67188zM261.383 149.277z" />
    <glyph glyph-name="2065138" unicode="&#xf10d;" 
d="M389.332 -0.0078125h-330.664c-32.3633 0 -58.668 26.3047 -58.668 58.668v330.664c0 32.3633 26.3047 58.668 58.668 58.668h266.664c8.83203 0 16 -7.16797 16 -16s-7.16797 -16 -16 -16h-266.664c-14.6992 0 -26.668 -11.9688 -26.668 -26.668v-330.664
c0 -14.6992 11.9688 -26.668 26.668 -26.668h330.664c14.6992 0 26.668 11.9688 26.668 26.668v181.332c0 8.83203 7.16797 16 16 16s16 -7.16797 16 -16v-181.332c0 -32.3633 -26.3047 -58.668 -58.668 -58.668zM389.332 -0.0078125zM261.332 181.324
c-4.09375 0 -8.19141 1.55859 -11.3047 4.69531l-96 96c-6.25 6.25 -6.25 16.3828 0 22.6328s16.3828 6.25 22.6328 0l84.6953 -84.6914l223.336 223.336c6.25391 6.25391 16.3867 6.25391 22.6367 0c6.25 -6.25 6.25 -16.3828 0 -22.6328l-234.668 -234.668
c-3.13672 -3.11328 -7.23047 -4.67188 -11.3281 -4.67188zM261.332 181.324z" />
    <glyph glyph-name="2065139" unicode="&#xf10e;" 
d="M120.891 -64h-71.1143c-27.4482 0 -49.7764 22.3281 -49.7764 49.7764c0 10.3281 3.1875 20.3691 8.95801 28.2441l122.969 177.979l-123.307 178.458c-5.43262 7.39648 -8.62012 17.4375 -8.62012 27.7656c0 27.4482 22.3281 49.7764 49.7764 49.7764h71.1143
c16.583 0 32.0264 -8.33301 41.3545 -22.3018l142.025 -205.964c5.43262 -7.37012 8.62012 -17.4111 8.62012 -27.7344s-3.1875 -20.3643 -8.96387 -28.2451l-141.88 -205.708c-9.12988 -13.7139 -24.5732 -22.0469 -41.1562 -22.0469zM49.7764 405.333
c-3.86523 0 -7.10938 -3.24414 -7.10938 -7.10938c0 -1.53613 0.484375 -2.73438 0.712891 -3.01562l132.037 -191.062c5.03613 -7.28125 5.03613 -16.9531 0 -24.2656l-131.698 -190.572c-0.567383 -0.796875 -1.05176 -1.99512 -1.05176 -3.53125
c0 -3.86523 3.24414 -7.10938 7.10938 -7.10938h71.1143c3.18262 0 5.03125 2.07812 5.85938 3.32812l142.422 206.479c0.567383 0.796875 1.05176 1.99023 1.05176 3.52637s-0.484375 2.72949 -0.712891 3.01562l-142.562 206.734
c-1.02637 1.50488 -2.875 3.58301 -6.05762 3.58301h-71.1143zM49.7764 405.333z" />
    </font>
</defs>
</svg>
