<?xml version="1.0" standalone="no"?>
<!DOCTYPE svg PUBLIC "-//W3C//DTD SVG 1.1//EN" "http://www.w3.org/Graphics/SVG/1.1/DTD/svg11.dtd" >
<!--
2018-1-26: Created with FontForge (http://fontforge.org)
-->
<svg xmlns="http://www.w3.org/2000/svg" xmlns:xlink="http://www.w3.org/1999/xlink" version="1.1">
<metadata>
Created by FontForge 20160405 at Fri Jan 26 10:10:54 2018
 By Apache
Copyright (c) 2018, Apache
</metadata>
<defs>
<font id="Flaticon" horiz-adv-x="512" >
  <font-face 
    font-family="Flaticon"
    font-weight="400"
    font-stretch="normal"
    units-per-em="512"
    panose-1="2 0 5 3 0 0 0 0 0 0"
    ascent="448"
    descent="-64"
    bbox="-0.000628475 -64.001 512.002 448.001"
    underline-thickness="25.6"
    underline-position="-51.2"
    unicode-range="U+0020-F183"
  />
    <missing-glyph />
    <glyph glyph-name="space" unicode=" " horiz-adv-x="200" 
 />
    <glyph glyph-name="uniF160" unicode="&#xf160;" 
d="M353.574 271.474l-8.68945 -237.277l-40.0781 1.46387l8.68945 237.284zM235.948 34.9238v237.285h40.1035v-237.285h-40.1035zM207.186 35.666l-40.0762 -1.46973l-8.69043 237.284l40.0781 1.4707zM17.3789 371.133h477.242v-40.1035h-42.4639l-33.1533 -376.729
c-0.902344 -10.3535 -9.57812 -18.3008 -19.9717 -18.3008h-286.74c-10.3926 0 -19.0635 7.94141 -19.9717 18.2939l-33.1523 376.735h-41.7891v40.1035zM380.665 -23.8965l31.2354 354.926h-312.475l31.2285 -354.926h250.011zM321.504 448
c18.4277 0 33.4199 -14.9922 33.4199 -33.4199v-63.499h-40.1035v56.8154h-117.641v-56.8154h-40.1035v63.499c0 18.4277 14.9922 33.4199 33.4199 33.4199h131.008z" />
    <glyph glyph-name="uniF147" unicode="&#xf147;" 
d="M465.746 207.288c61.6318 -61.625 61.6758 -162.519 0.105469 -224.928c-30.9053 -30.8916 -71.6143 -46.3418 -112.395 -46.3418c-40.6943 0 -81.4746 15.3848 -112.64 46.1328l-42.5957 42.5947c-8.44141 8.43457 -8.44141 22.1113 0 30.5537
c8.44238 8.44043 22.127 8.44043 30.5605 0l42.4951 -42.4873c45.4629 -44.8428 119.036 -44.8789 163.915 0c44.8428 45.4482 44.8867 119.021 0 163.915l-42.4873 42.4951c-8.44141 8.43359 -8.44141 22.1191 0 30.5605c8.44238 8.43359 22.1133 8.43359 30.5537 0z
M313.766 359.253c8.44238 -8.43359 8.44238 -22.1191 0.00195312 -30.5527c-8.44141 -8.44141 -22.1113 -8.44141 -30.5527 0l-42.4951 42.4951c-45.4482 44.835 -119.022 44.8789 -163.915 0c-44.8438 -45.4482 -44.8867 -119.021 0 -163.907l42.4951 -42.4951
c8.44043 -8.43555 8.44043 -22.1201 0 -30.5537c-4.2207 -4.22852 -9.75293 -6.33789 -15.2764 -6.33789c-5.53223 0 -11.0635 2.10938 -15.2773 6.33105l-42.4951 42.4951c-61.625 61.625 -61.6748 162.517 -0.107422 224.919
c61.7324 61.7188 162.633 61.7695 225.027 0.208984zM326.011 152.534c8.44043 -8.43457 8.44043 -22.1191 0 -30.5537c-4.2207 -4.2207 -9.74512 -6.33105 -15.2764 -6.33105c-5.53223 0 -11.0566 2.11035 -15.2773 6.33105l-109.478 109.478
c-8.44141 8.43457 -8.44141 22.1201 0 30.5537c8.43457 8.44141 22.1191 8.44141 30.5537 0z" />
    <glyph glyph-name="uniF161" unicode="&#xf161;" 
d="M408.299 349.488l41.3555 -3.625l-33.2109 -378.473c-1.77832 -17.7119 -16.9307 -31.3906 -34.5186 -31.3906h-251.849c-17.5947 0 -32.7412 13.6855 -34.4902 31.1416l-33.2324 378.722l41.3545 3.625l32.6357 -371.976h239.312zM332.108 448
c19.0752 0 34.5947 -15.5186 34.5928 -34.5938v-65.7305h-41.5127v58.8115h-138.379v-58.8125h-41.5127v65.7305c0 19.0762 15.5195 34.5947 34.5947 34.5947h152.217zM477.405 368.432c11.4648 0 20.7578 -9.29199 20.7578 -20.7568s-9.29199 -20.7568 -20.7568 -20.7568
h-442.812c-11.4648 0 -20.7568 9.29199 -20.7568 20.7568s9.29199 20.7568 20.7568 20.7568h442.811z" />
    <glyph glyph-name="uniF10C" unicode="&#xf10c;" 
d="M480 332.8c17.6445 0 32 -14.3545 32 -32v-294.399c0 -17.6455 -14.3555 -32 -32 -32h-448c-17.6445 0 -32 14.3545 -32 32v294.399c0 17.6455 14.3555 32 32 32h448zM473.6 12.7998v281.601h-435.199v-281.601h435.199zM313.6 409.6
c24.6982 0 44.8008 -20.0957 44.8008 -44.7998v-371.2h-38.4004v371.2c0 3.46875 -2.93066 6.40039 -6.40039 6.40039h-121.6c-3.46875 0 -6.40039 -2.93164 -6.40039 -6.40039v-371.2h-38.3994v371.2c0 24.7041 20.0957 44.7998 44.7998 44.7998h121.6z" />
    <glyph glyph-name="uniF176" unicode="&#xf176;" 
d="M336.691 442.974c4.73145 -4.73145 6.2793 -11.7764 3.96094 -18.0566l-82.8574 -224.571c-1.73828 -4.70312 -5.44629 -8.41211 -10.1484 -10.1484l-224.571 -82.8574c-1.92578 -0.708008 -3.9375 -1.05664 -5.92578 -1.05664
c-4.46973 0 -8.85254 1.74902 -12.126 5.02246c-4.73145 4.72559 -6.28027 11.7822 -3.95996 18.0518l82.8555 224.57c1.73828 4.70312 5.44629 8.41211 10.1494 10.1494l224.571 82.8564c6.26855 2.32617 13.3311 0.766602 18.0518 -3.95996zM228.366 219.637
l67.252 182.263l-182.27 -67.251l-67.2461 -182.264zM506.977 272.688c4.73242 -4.73145 6.28027 -11.7773 3.96191 -18.0576l-82.8574 -224.565c-1.73828 -4.70312 -5.44629 -8.41797 -10.1494 -10.1494l-224.565 -82.8574
c-1.9375 -0.713867 -3.94238 -1.05664 -5.93164 -1.05664c-4.46875 0 -8.85156 1.74902 -12.126 5.02344l-170.285 170.285l24.2393 24.2402l162.525 -162.52l206.863 76.3193l76.3193 206.857l-162.52 162.526l24.2402 24.2393zM399.861 23.8887l-170.269 170.269
l24.2393 24.2393l170.269 -170.269z" />
    <glyph glyph-name="uniF155" unicode="&#xf155;" 
d="M278.505 448c10.4219 0 18.8701 -8.44727 18.8701 -18.8701v-228.324c0 -10.4229 -8.44824 -18.8701 -18.8701 -18.8701h-250.968c-10.4229 0 -18.8701 8.44824 -18.8701 18.8701v228.324c0 10.4229 8.44824 18.8701 18.8701 18.8701h250.968zM259.629 219.676v190.584
h-213.229v-190.584h213.229zM499.59 149.103c4.62305 -6.91895 5.06348 -16.4795 0.803711 -24.4434c-4.3457 -8.12012 -12.7295 -13.1709 -21.876 -13.1709h-315.754c-10.4229 0 -18.8701 8.44727 -18.8701 18.8701v70.4463h37.7402v-51.5771h273.492l-51.1426 82.5244
c-3.67383 5.91895 -3.78027 13.3848 -0.283203 19.4111l52.1934 89.9082h-177.388v37.7393h200.021c8.49023 0 16.2461 -4.3457 20.75 -11.6357c4.57227 -7.38379 5.0127 -16.7627 1.16406 -24.4736c-0.176758 -0.352539 -0.365234 -0.698242 -0.560547 -1.03809
l-57.8486 -99.6582zM27.5312 219.676c10.4219 0 18.8691 -8.44824 18.8701 -18.8701v-245.936c0 -10.4287 -8.44727 -18.8701 -18.8701 -18.8701s-18.8701 8.44824 -18.8701 18.8701v245.936c0 10.4229 8.44824 18.8701 18.8701 18.8701z" />
    <glyph glyph-name="uniF13A" unicode="&#xf13a;" 
d="M482.909 380.8c16.041 0 29.0908 -13.0498 29.0908 -29.0908v-319.418c0 -16.041 -13.0498 -29.0908 -29.0908 -29.0908h-453.818c-16.041 0 -29.0908 13.0498 -29.0908 29.0908v319.418c0 16.041 13.0498 29.0908 29.0908 29.0908h453.818zM477.091 38.1094v307.781
h-442.182v-307.781h442.182zM126.836 21.2363v342.108h34.9092v-342.108h-34.9092zM350.255 21.2363v342.108h34.9092v-342.108h-34.9092zM367.709 228.946v34.9092h126.836v-34.9092h-126.836zM17.4551 228.946v34.9092h126.836v-34.9092h-126.836zM367.709 120.727
v34.9092h126.836v-34.9092h-126.836zM17.4551 120.727v34.9092h126.836v-34.9092h-126.836z" />
    <glyph glyph-name="uniF125" unicode="&#xf125;" 
d="M311.518 91.8994c9.29199 0 16.8242 -7.53125 16.8242 -16.8232v-122.253c0 -9.29297 -7.52539 -16.8242 -16.8242 -16.8242h-115.521c-9.29297 0 -16.8242 7.53223 -16.8242 16.8242v122.252c0 9.29297 7.53223 16.8242 16.8242 16.8242h115.521zM294.694 -30.3525
v88.6045h-81.875v-88.6045h81.875zM253.757 353.227c85.0381 0 154.217 -69.1787 154.217 -154.217c0 -61.1758 -36.2881 -116.745 -92.457 -141.57l-13.6045 30.7754c43.9941 19.4482 72.415 62.9326 72.415 110.795c0 66.4824 -54.0938 120.57 -120.57 120.57
c-66.4756 0 -120.57 -54.0889 -120.57 -120.57c0 -47.6729 28.2021 -90.9424 71.8545 -110.229l-13.5986 -30.7764c-55.8262 24.6641 -91.9023 80.0195 -91.9023 141.005c0 85.0381 69.1787 154.217 154.217 154.217zM195.996 -3.43359v33.6465h115.521v-33.6465h-115.521z
M239.176 377.901v70.0986h33.6475v-70.0986h-33.6475zM430.966 186.112v33.6465h70.6592v-33.6465h-70.6592zM10.375 186.112v33.6465h70.6592v-33.6465h-70.6592zM120.166 314.976l-49.3477 49.3477l23.7881 23.7881l49.3477 -49.3477zM391.821 314.952l-23.7871 23.7871
l49.3477 49.3477l23.7871 -23.7871z" />
    <glyph glyph-name="uniF17F" unicode="&#xf17f;" 
d="M467.952 20.6172c2.15039 -21.9453 -4.95312 -43.6768 -19.4951 -59.7031c-14.3408 -15.8389 -34.8682 -24.9141 -56.293 -24.9141h-271.653c-21.5244 0 -42.2451 9.26074 -56.8525 25.3936c-14.6074 16.1455 -21.7578 37.7041 -19.6143 59.1562l25.9805 245.793
c1.07129 10.1602 9.64746 17.877 19.8604 17.877h332.9c10.2402 0 18.8223 -7.74316 19.8672 -17.9297zM418.876 -12.2607c7.07715 7.80957 10.4004 18.0625 9.33398 28.8691l-23.4492 227.656h-296.899l-24.0752 -227.803
c-1.01172 -10.127 2.44238 -20.4668 9.49414 -28.2568c7.05078 -7.78906 16.9775 -12.2568 27.2373 -12.2568h271.646c10.3271 0 19.8135 4.1875 26.7119 11.791zM259.663 448c63.1445 0 114.518 -51.373 114.517 -114.518v-69.2432h-39.9404v69.2432
c0 41.1191 -33.4561 74.5693 -74.5762 74.5693s-74.5703 -33.4502 -74.5703 -74.5693v-69.2432h-39.9482v69.2432c0 63.1445 51.374 114.518 114.519 114.518z" />
    <glyph glyph-name="uniF10F" unicode="&#xf10f;" 
d="M122.117 307.122c10.5391 0 19.0811 -8.54199 19.0801 -19.0811v-192.715c0 -10.5459 -8.54199 -19.0811 -19.0811 -19.0811h-83.9551c-21.3955 0 -38.1611 16.7646 -38.1611 38.1611v154.554c0 21.3965 16.7656 38.1621 38.1611 38.1621h83.9561zM103.036 114.406
v154.554h-64.875c-0.204102 0 -0.292969 -0.0253906 -0.292969 -0.0253906l0.292969 -154.528h64.875zM289.156 383.197c5.67969 -3.45996 9.13965 -9.63672 9.13867 -16.2891v-349.814c0 -6.65234 -3.46582 -12.8291 -9.14551 -16.2891
c-3.04004 -1.85645 -6.48145 -2.79199 -9.93555 -2.79199c-2.98926 0 -5.98535 0.700195 -8.72559 2.1123l-153.288 78.8672l17.459 33.9385l125.475 -64.5625v287.261l-125.475 -64.5566l-17.459 33.9316l153.289 78.8672
c5.90137 3.04688 12.9863 2.78613 18.667 -0.673828zM343.453 268.331c45.9473 0 83.3193 -37.373 83.3193 -83.3203c0 -45.9463 -37.373 -83.3262 -83.3193 -83.3262c-10.5391 0 -19.0811 8.54199 -19.0811 19.0811s8.54199 19.0811 19.0811 19.0811
c24.9004 0 45.1582 20.2637 45.1582 45.1641c0 24.9014 -20.2588 45.1582 -45.1582 45.1582c-10.5391 0 -19.0811 8.54199 -19.0811 19.0811s8.54199 19.0811 19.0811 19.0811zM343.453 353.558c92.9355 0 168.547 -75.6104 168.547 -168.547
c0 -93.2979 -75.6113 -169.188 -168.547 -169.188c-10.5391 0 -19.0811 8.54199 -19.0811 19.0811s8.54199 19.0811 19.0811 19.0811c71.8955 0 130.385 58.7744 130.385 131.026c0 71.8965 -58.4893 130.386 -130.385 130.386
c-10.5391 0 -19.0811 8.54199 -19.0811 19.0801c0 10.5391 8.54199 19.0811 19.0811 19.0811z" />
    <glyph glyph-name="uniF182" unicode="&#xf182;" 
d="M24.3936 245.636l-7.83105 40.2002l473.023 92.1465l7.83105 -40.2002zM489.579 10.7803l-473.021 92.1465l7.8291 40.1934l473.022 -92.1465zM20.4805 320.341c11.3115 0 20.4795 -9.16797 20.4795 -20.4795v-210.944c0 -11.3115 -9.16797 -20.4805 -20.4795 -20.4805
c-11.3125 0 -20.4805 9.16895 -20.4805 20.4805v210.944c0 11.3115 9.16797 20.4795 20.4805 20.4795zM491.52 426.837c11.3125 0 20.4805 -9.16797 20.4805 -20.4795v-423.937c0 -11.3115 -9.16797 -20.4795 -20.4805 -20.4795
c-11.3115 0 -20.4795 9.16797 -20.4795 20.4795v423.937c0 11.3115 9.16797 20.4795 20.4795 20.4795zM318.805 59.5635h40.9609v-81.9209c0 -11.3115 -9.16797 -20.4795 -20.4795 -20.4795h-221.867c-11.3115 0 -20.4795 9.16797 -20.4795 20.4795v126.293h40.96v-105.812
h180.905v61.4404z" />
    <glyph glyph-name="uniF11B" unicode="&#xf11b;" 
d="M370.978 428.943h38.1133v-122.602c0 -5.8252 -2.66113 -11.3262 -7.23438 -14.9473l-134.041 -106.084c-3.45508 -2.7373 -7.63574 -4.10938 -11.8154 -4.10938s-8.36035 1.37207 -11.8281 4.10938l-134.035 106.084
c-4.56055 3.62109 -7.22852 9.12207 -7.22852 14.9473v122.602h38.1143v-113.377l114.978 -91.0049l114.978 91.0049v113.377zM401.863 98.957c4.57324 -3.61426 7.23438 -9.12207 7.23438 -14.9473v-128.953h-0.00585938h-38.1143v119.736l-114.978 90.9971
l-114.978 -90.9971v-119.736h-38.1143v128.953c0 5.8252 2.66211 11.3262 7.22852 14.9473l134.035 106.084c6.93066 5.48242 16.7266 5.48242 23.6504 0zM448.476 448c10.5264 0 19.0576 -8.53125 19.0576 -19.0566c0 -10.5264 -8.53125 -19.0576 -19.0576 -19.0576
h-384.952c-10.5264 0 -19.0576 8.53125 -19.0576 19.0576c0 10.5254 8.53223 19.0566 19.0586 19.0566h384.951zM448.476 -25.8857c10.5264 0 19.0586 -8.53125 19.0586 -19.0576c0 -10.5254 -8.53125 -19.0566 -19.0576 -19.0566h-384.952
c-10.5264 0 -19.0576 8.53125 -19.0576 19.0566c0 10.5264 8.53125 19.0576 19.0576 19.0576h384.951z" />
    <glyph glyph-name="uniF156" unicode="&#xf156;" 
d="M500.191 437.326c3.30469 -6.5459 2.64941 -14.4014 -1.70508 -20.3047l-177.677 -241.134v-220.444c0 -10.7393 -8.70312 -19.4434 -19.4424 -19.4434h-90.7344c-10.7393 0 -19.4424 8.7041 -19.4424 19.4434v220.444l-177.678 241.134
c-4.34863 5.90332 -5.00977 13.7588 -1.70508 20.3047c3.3125 6.5459 10.0205 10.6738 17.3564 10.6738h453.67c7.33691 0 14.0449 -4.12793 17.3574 -10.6738zM285.714 193.808l158.649 215.307h-376.723l158.644 -215.306
c2.46191 -3.33789 3.79102 -7.37598 3.79102 -11.5293v-207.394h51.8477v207.393c0 4.1543 1.32812 8.19141 3.79102 11.5293z" />
    <glyph glyph-name="uniF163" unicode="&#xf163;" 
d="M478.989 444.764c18.5049 0 33.0107 -14.5 33.0098 -33.0117v-439.504c0 -18.5049 -14.5049 -33.0107 -33.0107 -33.0107h-445.978c-18.5117 0 -33.0107 14.499 -33.0107 33.0107v439.504c0 18.2021 14.8096 33.0117 33.0107 33.0117h445.979zM473.163 -21.9268v427.854
h-434.326v-427.854h434.326zM19.418 230.513v38.8369h473.81v-38.8369h-473.81zM137.871 381.33c23.917 0 43.3682 -19.457 43.3682 -43.3682s-19.457 -43.3682 -43.3682 -43.3682s-43.3682 19.457 -43.3682 43.3682s19.4512 43.3682 43.3682 43.3682zM137.871 333.431
c2.49902 0 4.53125 2.0332 4.53125 4.53125c0 2.49902 -2.03223 4.53125 -4.53125 4.53125s-4.53125 -2.0332 -4.53125 -4.53125c0 -2.49902 2.0332 -4.53125 4.53125 -4.53125zM374.776 381.33c23.9102 0 43.3672 -19.457 43.3672 -43.3682
s-19.4502 -43.3682 -43.3672 -43.3682c-23.9111 0 -43.3682 19.457 -43.3682 43.3682s19.457 43.3682 43.3682 43.3682zM374.776 333.431c2.49902 0 4.53027 2.0332 4.53027 4.53125c0 2.49902 -2.03223 4.53125 -4.53027 4.53125
c-2.49902 0 -4.53125 -2.0332 -4.53125 -4.53125c0 -2.49902 2.03223 -4.53125 4.53125 -4.53125z" />
    <glyph glyph-name="uniF11C" unicode="&#xf11c;" 
d="M345.869 448c9.39453 0 17.0098 -7.61523 17.0107 -17.0098v-477.98c0 -9.39453 -7.61523 -17.0098 -17.0098 -17.0098h-179.739c-9.39453 0 -17.0098 7.61523 -17.0098 17.0098v477.98c0 9.39453 7.61523 17.0098 17.0098 17.0098h179.738zM328.859 -29.9805
h0.000976562v443.961h-145.72v-443.961h145.719zM235.872 265.426c9.39453 0 17.0098 -7.61426 17.0098 -17.0098c0 -9.39453 -7.62012 -17.0098 -17.0098 -17.0098h-69.7412c-9.39453 0 -17.0098 7.61523 -17.0098 17.0098s7.61523 17.0098 17.0098 17.0098h69.7412z
M213.192 378.826c9.39453 0 17.0098 -7.61523 17.0098 -17.0098c0 -9.39551 -7.62109 -17.0107 -17.0098 -17.0107h-47.0615c-9.39453 0 -17.0098 7.61523 -17.0098 17.0107c0 9.39453 7.61523 17.0098 17.0098 17.0098h47.0615zM213.192 152.027
c9.39453 0 17.0098 -7.61523 17.0098 -17.0107c0 -9.39453 -7.62109 -17.0098 -17.0098 -17.0098h-47.0615c-9.39453 0 -17.0098 7.61523 -17.0098 17.0098c0 9.39551 7.61523 17.0107 17.0098 17.0107h47.0615zM235.872 38.627
c9.39453 0 17.0098 -7.61523 17.0098 -17.0098c0 -9.39551 -7.62012 -17.0098 -17.0098 -17.0098h-69.7412c-9.39453 0 -17.0098 7.61426 -17.0098 17.0098c0 9.39453 7.61523 17.0098 17.0098 17.0098h69.7412z" />
    <glyph glyph-name="uniF15C" unicode="&#xf15c;" 
d="M256 366.923c10.5781 0 19.1514 -8.5752 19.1514 -19.1533c0 -10.5771 -8.58008 -19.1514 -19.1523 -19.1514c-75.3311 0 -136.618 -61.2871 -136.618 -136.612c0 -10.584 -8.57422 -19.1582 -19.1523 -19.1582c-10.5771 0 -19.1514 8.57422 -19.1514 19.1523
c0 96.4502 78.4727 174.923 174.923 174.923zM411.771 211.152c10.5771 0 19.1514 -8.57422 19.1523 -19.1514c0 -96.4502 -78.4727 -174.923 -174.923 -174.923c-10.5781 0 -19.1523 8.57422 -19.1523 19.1523c0 10.5771 8.57422 19.1514 19.1523 19.1514
c75.3311 0 136.618 61.293 136.618 136.618c0 10.5781 8.57422 19.1523 19.1523 19.1523zM256 448c141.158 0 256 -114.842 256 -256s-114.843 -256 -256 -256s-256 114.843 -256 256s114.843 256 256 256zM256 -25.6963c120.039 0 217.696 97.6641 217.696 217.703
s-97.6572 217.689 -217.696 217.689s-217.696 -97.6572 -217.696 -217.696s97.6572 -217.696 217.696 -217.696zM256 289.682c53.8623 0 97.6758 -43.8135 97.6758 -97.6758s-43.8135 -97.6816 -97.6758 -97.6816s-97.6758 43.8193 -97.6758 97.6816
s43.8193 97.6758 97.6758 97.6758zM256 132.622c32.7373 0 59.3721 26.6338 59.3721 59.3779c0 32.7383 -26.6279 59.3721 -59.3721 59.3721c-32.7383 0 -59.3721 -26.6348 -59.3721 -59.3721c0 -32.7441 26.6348 -59.3779 59.3721 -59.3779z" />
    <glyph glyph-name="uniF152" unicode="&#xf152;" 
d="M505.496 207.693c8.67188 -8.66406 8.67188 -22.7227 0.000976562 -31.3867l-194.59 -194.59c-4.32812 -4.33594 -10.0107 -6.50391 -15.6934 -6.50391c-5.68164 0 -11.3564 2.16797 -15.6924 6.50391c-8.67188 8.66406 -8.67188 22.7227 0 31.3857l178.896 178.897
l-178.898 178.897c-8.6709 8.66309 -8.6709 22.7217 0 31.3857c8.67285 8.6709 22.7148 8.6709 31.3867 0zM232.479 207.693c8.67188 -8.66406 8.67188 -22.7227 0.00195312 -31.3867l-194.591 -194.59c-4.32812 -4.33594 -10.0107 -6.50391 -15.6924 -6.50391
c-5.68262 0 -11.3652 2.16797 -15.6934 6.50391c-8.6709 8.66406 -8.6709 22.7227 0 31.3857l178.889 178.897l-178.89 178.897c-8.6709 8.66309 -8.6709 22.7217 0 31.3857c8.66406 8.6709 22.7217 8.6709 31.3857 0z" />
    <glyph glyph-name="uniF144" unicode="&#xf144;" 
d="M256 448c122.366 0 221.907 -95.5215 221.907 -212.935c0 -159.349 -203.604 -290.745 -212.277 -296.261c-2.93652 -1.86523 -6.28613 -2.80469 -9.62988 -2.80469c-3.34961 0 -6.69336 0.932617 -9.62988 2.80469c-8.67285 5.51562 -212.277 136.912 -212.277 296.261
c0 117.413 99.5469 212.935 221.907 212.935zM255.994 -24.3916c39.3926 27.4775 186.024 137.977 186.024 259.457c0 97.627 -83.4443 177.047 -186.019 177.047s-186.019 -79.4199 -186.019 -177.047c0 -121.678 146.602 -232.016 186.013 -259.457zM256 350.499
c55.7402 0 101.084 -45.3506 101.084 -101.084c0 -55.7344 -45.3438 -101.078 -101.084 -101.078s-101.084 45.3438 -101.084 101.078c0 55.7402 45.3438 101.084 101.084 101.084zM256 184.23c35.9482 0 65.1963 29.2422 65.1963 65.1895
c0 35.9531 -29.248 65.1963 -65.1963 65.1963c-35.9473 0 -65.1963 -29.248 -65.1963 -65.1963c0 -35.9473 29.248 -65.1895 65.1963 -65.1895z" />
    <glyph glyph-name="uniF131" unicode="&#xf131;" 
d="M422.4 448c24.6973 0 44.7998 -20.0957 44.7998 -44.7998v-422.4c0 -24.6982 -20.1025 -44.7998 -44.7998 -44.7998h-332.801c-24.7031 0 -44.7998 20.1016 -44.7998 44.7998v422.4c0 24.7041 20.0967 44.7998 44.7998 44.7998h332.801zM428.8 -19.2002v422.4
c0 3.46875 -2.93066 6.39941 -6.39941 6.39941h-332.801c-3.46875 0 -6.39941 -2.93066 -6.39941 -6.39941v-422.4c0 -3.46875 2.93066 -6.39941 6.39941 -6.39941h332.801c3.46875 0 6.39941 2.93066 6.39941 6.39941zM313.6 230.4
c10.6055 0 19.2002 -8.5957 19.2002 -19.2002c0 -10.6055 -8.59473 -19.2002 -19.2002 -19.2002h-121.6c-10.6055 0 -19.2002 8.59473 -19.2002 19.2002c0 10.6045 8.59473 19.2002 19.2002 19.2002h121.6zM358.4 153.6c10.6045 0 19.1992 -8.59473 19.1992 -19.1992
c0 -10.6055 -8.59473 -19.2002 -19.1992 -19.2002h-204.801c-10.6045 0 -19.1992 8.59473 -19.1992 19.2002c0 10.6045 8.59473 19.1992 19.1992 19.1992h204.801zM358.4 76.7998c10.6045 0 19.1992 -8.59473 19.1992 -19.2002
c0 -10.6045 -8.59473 -19.1992 -19.1992 -19.1992h-204.801c-10.6045 0 -19.1992 8.59473 -19.1992 19.1992c0 10.6055 8.59473 19.2002 19.1992 19.2002h204.801zM313.6 428.8h38.4004v-83.2002c0 -10.6045 -8.59473 -19.1992 -19.2002 -19.1992h-153.6
c-10.6055 0 -19.2002 8.59473 -19.2002 19.1992v83.2002h38.4004v-64h115.199v64z" />
    <glyph glyph-name="uniF14F" unicode="&#xf14f;" 
d="M256 448c137.72 0 249.756 -112.036 249.756 -249.756v-147.772c0 -11.4961 -9.31641 -20.8125 -20.8125 -20.8125h-64.5205v41.626h43.707v126.959c0 114.763 -93.3672 208.13 -208.13 208.13s-208.13 -93.3672 -208.13 -208.13v-126.959h45.7891v-41.626h-66.6025
c-11.4961 0 -20.8125 9.31641 -20.8125 20.8125v147.772c0 137.72 112.036 249.756 249.756 249.756zM169.279 158.005c11.4961 0 20.8125 -9.31641 20.8125 -20.8125v-180.379c0 -5.55762 -2.21973 -10.8711 -6.16113 -14.7842
c-3.89844 -3.85742 -9.1709 -6.0293 -14.6514 -6.0293h-0.1875l-75.6201 0.693359c-11.4199 0.110352 -20.626 9.39355 -20.626 20.8125v179.687c0 11.4961 9.31738 20.8125 20.8135 20.8125h75.6201zM148.466 -22.1865v138.565h-33.9951v-138.254zM419.035 158.005
c11.4961 0 20.8125 -9.31641 20.8125 -20.8125v-179.687c0 -11.4961 -9.31641 -20.8125 -20.8125 -20.8125h-76.3145c-11.4961 0 -20.8125 9.31641 -20.8125 20.8125v179.687c0 11.4961 9.31641 20.8125 20.8125 20.8125h76.3145zM398.222 -21.6797v138.06h-34.6875v-138.06
h34.6875z" />
    <glyph glyph-name="uniF12D" unicode="&#xf12d;" 
d="M504.508 442.544c5.37207 -5.31543 7.05762 -13.3213 4.28418 -20.3467l-187.439 -474.26c-2.33398 -5.90625 -7.48535 -10.2461 -13.7061 -11.543c-1.27051 -0.263672 -2.56641 -0.395508 -3.84277 -0.395508c-4.94434 0 -9.75586 1.9502 -13.3281 5.50977
l-283.046 282.424c-4.47168 4.46582 -6.41504 10.875 -5.16992 17.0771s5.5166 11.3652 11.3721 13.75l470.484 191.841c6.9873 2.85645 15.0264 1.25879 20.3916 -4.05664zM296.81 -11.4854l160.644 406.466l-403.226 -164.418zM175.729 83.1699l-26.8896 26.4814
l327.1 332.135l26.8896 -26.4824zM189.102 71.2578l25.625 -27.7012l-83.6553 -77.3711c-3.56055 -3.2959 -8.1582 -5.02637 -12.8193 -5.02637c-2.55371 0 -5.12598 0.515625 -7.55371 1.5791c-6.86816 3.00684 -11.3096 9.79395 -11.3096 17.291v161.027h37.7393v-117.866
z" />
    <glyph glyph-name="uniF118" unicode="&#xf118;" 
d="M149.239 431.448v0.000976562h33.1035v-112c0 -9.14258 -7.41016 -16.5518 -16.5518 -16.5518h-112v33.1025h95.4482v95.4482zM355.584 448c9.1416 0 16.5508 -7.41016 16.5518 -16.5518v-231.172c0 -9.14258 -7.41016 -16.5527 -16.5518 -16.5527
s-16.5518 7.41504 -16.5518 16.5527v214.621h-166.39l-102.301 -102.302v-252.458h141.794c9.14258 0 16.5527 -7.41016 16.5527 -16.5518s-7.41016 -16.5518 -16.5527 -16.5518h-158.345c-9.1416 0 -16.5518 7.41016 -16.5518 16.5518v275.862
c0 4.38574 1.74414 8.60059 4.84961 11.7021l112 112c3.10156 3.10645 7.31055 4.84961 11.7021 4.84961h189.793zM273.929 264.828c9.14258 0 16.5518 -7.41016 16.5527 -16.5518c0 -9.14258 -7.4043 -16.5527 -16.5527 -16.5527h-138.482
c-9.14258 0 -16.5527 7.41016 -16.5527 16.5527c0 9.1416 7.41016 16.5518 16.5527 16.5518h138.482zM273.929 198.621c9.14258 0 16.5527 -7.41016 16.5527 -16.5518c0 -9.14258 -7.4043 -16.5527 -16.5527 -16.5527h-138.482
c-9.14258 0 -16.5527 7.41016 -16.5527 16.5527c0 9.1416 7.41016 16.5518 16.5527 16.5518h138.482zM347.86 156.138c51.7178 0 93.793 -42.0732 93.793 -93.793c0 -51.7188 -42.0742 -93.793 -93.793 -93.793c-51.7197 0 -93.793 42.0742 -93.793 93.793
c0 51.7197 42.0732 93.793 93.793 93.793zM347.86 1.65527c33.4619 0 60.6885 27.2275 60.6895 60.6895c0 33.4619 -27.2275 60.6904 -60.6895 60.6904s-60.6904 -27.2285 -60.6904 -60.6904s27.2285 -60.6895 60.6904 -60.6895zM469.851 -35.6914
c6.5 -6.42773 6.55566 -16.9043 0.116211 -23.4033c-3.23926 -3.2666 -7.50391 -4.90527 -11.7627 -4.90527c-4.20898 0 -8.41309 1.59473 -11.6406 4.78906l-55.1729 54.6152c-6.49902 6.42676 -6.55469 16.9043 -0.115234 23.4033
c6.43262 6.50586 16.9043 6.5498 23.4033 0.116211z" />
    <glyph glyph-name="uniF121" unicode="&#xf121;" 
d="M256 384c133.793 0 223.67 -115.649 223.67 -223.664c0 -108.344 -89.877 -224.336 -223.67 -224.336s-223.67 115.992 -223.67 224.33c0 10.9326 8.8623 19.793 19.7949 19.793s19.7939 -8.86133 19.7939 -19.7939c0 -77.4463 63.9727 -184.742 184.082 -184.742
c110.113 0 184.082 95.5254 184.082 184.742c0 88.8994 -73.9688 184.082 -184.082 184.082c-53.7197 0 -98.7451 -25.0723 -129.26 -53.9912l109.13 1.86719h0.342773c10.7744 0 19.6025 -8.64355 19.7871 -19.457c0.183594 -10.9316 -8.52539 -19.9395 -19.4512 -20.1299
l-154.392 -2.63965c-5.3916 -0.0917969 -10.5371 1.99902 -14.3311 5.79297c-3.7998 3.79492 -5.89258 8.96777 -5.80566 14.3311l2.63867 158.352c0.18457 10.8135 9.0127 19.4639 19.7881 19.4639h0.335938c10.9316 -0.177734 19.6475 -9.19141 19.4639 -20.1172
l-1.76172 -105.739c36.9746 34.1055 89.7646 61.8564 153.514 61.8564z" />
    <glyph glyph-name="uniF151" unicode="&#xf151;" 
d="M177.592 448c11.1045 0 20.1045 -9 20.1055 -20.1035c0 -11.1055 -9.00098 -20.1055 -20.1055 -20.1055h-137.382v-136.713c0 -11.1055 -9.00098 -20.1055 -20.1045 -20.1055c-11.1055 0 -20.1055 9.00098 -20.1055 20.1055v156.816c0 11.1055 9 20.1055 20.1055 20.1055
h157.486zM176.921 -23.1201c11.1055 0 20.1064 -9 20.1064 -20.1045c0 -11.1055 -9.00098 -20.1055 -20.1055 -20.1055h-156.816c-11.1055 0 -20.1055 9.00098 -20.1055 20.1055v156.816c0 11.1045 9 20.1045 20.1035 20.1055c11.1055 0 20.1055 -9.00098 20.1055 -20.1055
v-136.712h136.712zM491.225 133.696c11.1055 0 20.1055 -9 20.1055 -20.1045v-157.488c0 -11.1104 -9.00098 -20.1045 -20.1055 -20.1045h-156.816c-11.1055 0 -20.1055 9 -20.1055 20.1045c0 11.1055 9.00098 20.1055 20.1055 20.1055h136.712v137.382
c0 11.1055 9.00098 20.1055 20.1045 20.1055zM491.895 448c11.1055 0 20.1055 -9 20.1055 -20.1055v-157.486c0 -11.1055 -8.99414 -20.1055 -20.1055 -20.1055c-11.1045 0 -20.1045 9.00098 -20.1045 20.1055v137.382h-137.382
c-11.1055 0 -20.1055 9.00098 -20.1055 20.1045c0 11.1055 9.00098 20.1055 20.1055 20.1055h157.486z" />
    <glyph glyph-name="uniF168" unicode="&#xf168;" 
d="M256 448c141.155 0 256 -114.839 256 -256s-114.839 -256 -256 -256c-141.155 0 -256 114.839 -256 256s114.845 256 256 256zM256 -26.6279c120.55 0 218.628 98.0781 218.628 218.634c0 120.545 -98.0781 218.622 -218.628 218.622
s-218.628 -98.0781 -218.628 -218.628s98.0781 -218.628 218.628 -218.628zM343.202 192c10.3213 0 18.6855 -8.36523 18.6855 -18.6855c0 -10.3213 -8.36426 -18.6865 -18.6855 -18.6865h-99.6592c-10.3213 0 -18.6855 8.36523 -18.6855 18.6865v130.803
c0 10.3213 8.36426 18.6855 18.6855 18.6855s18.6855 -8.36426 18.6855 -18.6855v-112.117h80.9736z" />
    <glyph glyph-name="uniF122" unicode="&#xf122;" 
d="M491.574 414.638c11.2822 0 20.4258 -9.14355 20.4258 -20.4248v-369.02c0 -11.2822 -9.14355 -20.4268 -20.4258 -20.4268h-145.021c-22.5557 0 -44.0986 -6.91797 -62.2842 -19.9893l-16.4551 -11.6631c-3.54102 -2.49805 -7.67383 -3.75098 -11.8135 -3.75098
c-4.13281 0 -8.27246 1.25195 -11.8057 3.75781l-16.3408 11.5742c-18.3145 13.1602 -39.8496 20.0703 -62.4062 20.0703h-145.021c-11.2822 0 -20.4258 9.14453 -20.4258 20.4268v369.021c0 11.2812 9.14355 20.4248 20.4258 20.4248h145.021
c31.1631 0 60.9424 -9.56543 86.1279 -27.6699l4.41895 -3.13184l4.53418 3.21387c25.0752 18.0225 54.8623 27.5879 86.0254 27.5879h145.021zM471.149 45.6172v328.171h-124.597c-22.5557 0 -44.0986 -6.91113 -62.2842 -19.9902l-16.4551 -11.6562
c-7.07422 -5.00391 -16.5459 -5.01074 -23.6191 0l-16.3408 11.5742c-18.3145 13.1602 -39.8496 20.0713 -62.4062 20.0713h-124.597v-328.17h124.596c31.1631 0 60.9424 -9.56641 86.1279 -27.6631l4.41895 -3.13184l4.53418 3.21387
c25.0752 18.0146 54.8623 27.5811 86.0254 27.5811h124.597zM235.574 -10.2119v369.021h40.8506v-369.021h-40.8506z" />
    <glyph glyph-name="uniF11D" unicode="&#xf11d;" 
d="M388.424 206.05c3.73047 -3.72461 5.83398 -8.7793 5.83398 -14.0508c0 -5.27246 -2.09766 -10.332 -5.83398 -14.0498l-236.816 -236.154c-3.87598 -3.86328 -8.94336 -5.79492 -14.0166 -5.79492c-5.08691 0 -10.1748 1.94531 -14.0576 5.83496
c-7.73828 7.75977 -7.71875 20.3213 0.0400391 28.0605l222.728 222.104l-222.72 222.104c-7.75977 7.73828 -7.7793 20.3076 -0.0390625 28.0664c7.74512 7.75977 20.3076 7.77344 28.0664 0.0400391z" />
    <glyph glyph-name="uniF142" unicode="&#xf142;" 
d="M495.102 335.63c9.33301 0 16.8984 -7.56348 16.8994 -16.8965v-253.467c0 -9.33398 -7.55859 -16.8975 -16.8984 -16.8975h-350.908c-9.33301 0 -16.8984 7.56445 -16.8984 16.8975v253.466c0 9.33301 7.56543 16.8975 16.8984 16.8975h350.907zM449.005 301.835
h-260.568l126.733 -113.344zM478.205 82.165h-0.000976562v200.112l-152.423 -129.081c-6.42773 -5.44629 -15.9014 -5.32227 -22.1816 0.298828l-142.509 127.454v-198.784h317.114zM95.7539 208.898c9.33301 0 16.8975 -7.56543 16.8975 -16.8984
s-7.56543 -16.8984 -16.8984 -16.8984h-29.2891c-9.33301 0 -16.8975 7.56543 -16.8975 16.8984s7.56445 16.8984 16.8975 16.8984h29.29zM95.7539 140.18c9.33301 0 16.8975 -7.56348 16.8984 -16.8965c0 -9.33301 -7.56543 -16.8984 -16.8984 -16.8984h-78.8555
c-9.33301 0 -16.8984 7.56543 -16.8984 16.8984s7.56543 16.8965 16.8984 16.8965h78.8555zM95.7539 277.615c9.33301 0 16.8984 -7.56543 16.8984 -16.8984s-7.56543 -16.8975 -16.8984 -16.8975h-78.8555c-9.33301 0 -16.8984 7.56445 -16.8984 16.8975
s7.56543 16.8984 16.8984 16.8984h78.8555z" />
    <glyph glyph-name="uniF16F" unicode="&#xf16f;" 
d="M483.556 328.533c15.6846 0 28.4443 -12.7598 28.4434 -28.4443v-284.445c0 -15.6836 -12.7598 -28.4434 -28.4443 -28.4434h-455.11c-15.6846 0 -28.4443 12.7598 -28.4443 28.4443v284.444c0 15.6846 12.7598 28.4443 28.4443 28.4443h101.473l21.9697 57.3096
c2.53223 6.59961 8.86426 10.957 15.9355 10.957h176.355c7.06543 0 13.4033 -4.35742 15.9404 -10.957l21.959 -57.3096h101.479zM477.867 21.333h0.000976562v273.067h-107.521c-7.06543 0 -13.4023 4.35742 -15.9346 10.957l-21.9648 57.3096h-152.89l-21.9707 -57.3096
c-2.53223 -6.59961 -8.86426 -10.957 -15.9346 -10.957h-107.521v-273.067h443.734zM256 291.561c66.1904 0 120.036 -53.8457 120.036 -120.035c0 -66.1904 -53.8447 -120.041 -120.036 -120.041s-120.036 53.8506 -120.036 120.041
c0 66.1846 53.8457 120.035 120.036 120.035zM256 85.6182c47.3662 0 85.9023 38.5361 85.9023 85.9014s-38.5361 85.9023 -85.9023 85.9023c-47.3652 0 -85.9023 -38.5312 -85.9023 -85.9023c0 -47.3701 38.5361 -85.9014 85.9023 -85.9014z" />
    <glyph glyph-name="uniF11A" unicode="&#xf11a;" 
d="M505.826 329.341c3.91797 -3.39258 6.17383 -8.32324 6.17383 -13.5078v-361.973c0 -9.86426 -7.99512 -17.8604 -17.8604 -17.8604h-476.279c-9.86426 0 -17.8604 7.99609 -17.8604 17.8604v476.279c0 9.86426 7.99609 17.8604 17.8604 17.8604h344.111
c4.29297 0 8.43652 -1.54199 11.6875 -4.35156zM476.279 -28.2793v335.943l-120.957 104.615h-319.602v-440.559h440.559zM297.674 430.14h35.7207v-139.906c0 -9.86426 -7.99414 -17.8604 -17.8594 -17.8604h-178.605c-9.86328 0 -17.8594 7.99512 -17.8594 17.8604
v139.906h35.7207v-122.047h142.883v122.047zM345.302 153.302c9.86523 0 17.8613 -7.99512 17.8613 -17.8594v-181.582h-35.7207v163.721h-202.419v-163.721h-35.7217v181.582c0 9.86426 7.99512 17.8594 17.8604 17.8594h238.14z" />
    <glyph glyph-name="uniF115" unicode="&#xf115;" 
d="M508.077 413.925c4.74316 -6.36914 5.22461 -14.9639 1.22949 -21.8223l-245.108 -420.174c-3.58105 -6.15137 -10.1338 -9.83789 -17.1035 -9.83789c-1.01758 0 -2.04785 0.0791016 -3.07227 0.238281c-8.06055 1.26172 -14.5283 7.33984 -16.2852 15.3076
l-43.0088 194.812l-174.61 98.0674c-7.10938 3.98926 -11.0469 11.918 -9.92969 19.9912c1.10938 8.07227 7.04883 14.6396 14.9697 16.5557l472.365 114.293c7.72363 1.85742 15.8105 -1.05664 20.5537 -7.43164zM255.51 35.6875l196.107 336.192l-378.131 -91.4932
l127.17 -71.416l66.9766 49.7998c8.78613 6.52051 21.1934 4.7168 27.7275 -4.07617c6.5332 -8.78613 4.71094 -21.2002 -4.07617 -27.7275l-67.0039 -49.8262z" />
    <glyph glyph-name="uniF130" unicode="&#xf130;" 
d="M256.296 384c100.966 0 183.111 -82.9453 183.113 -184.889v-90.0742h-35.5566v90.0742c0 82.3457 -66.1924 149.333 -147.556 149.333s-147.556 -66.9922 -147.556 -149.333v-90.0742h-35.5566v90.0742c0 101.949 82.1455 184.889 183.111 184.889zM342.222 237.037
c9.82031 0 17.7783 -7.95898 17.7783 -17.7783v-49.1846c0 -9.8252 -7.95801 -17.7783 -17.7783 -17.7783c-9.81934 0 -17.7773 7.95898 -17.7773 17.7783v49.1846c0 9.81934 7.95898 17.7783 17.7773 17.7783zM454.222 126.815
c9.81934 0 17.7783 -7.95898 17.7783 -17.7783v-82.9629c0 -9.82031 -7.95312 -17.7783 -17.7783 -17.7783h-396.443c-9.82031 0 -17.7783 7.95898 -17.7783 17.7783v82.9629c0 9.82031 7.95898 17.7783 17.7783 17.7783h396.443zM436.444 43.8516h0.000976562v47.4072
h-360.89v-47.4072h360.889zM291.259 26.0742h35.5557v-19.5566c0 -38.8857 -31.6348 -70.5186 -70.5195 -70.5186s-70.5176 31.6387 -70.5176 70.5186v19.5566h35.5557v-19.5566c0 -19.2822 15.6797 -34.9629 34.9629 -34.9629s34.9629 15.6807 34.9629 34.9629v19.5566z
M256.296 448c33.6602 0 61.0371 -27.3838 61.0381 -61.0371v-26.0742h-35.5557v26.0742c0 13.8145 -11.6689 25.4824 -25.4824 25.4824c-13.8125 0 -25.4805 -11.6689 -25.4805 -25.4824v-26.667h-35.5566v26.667c0 33.6533 27.3838 61.0371 61.0371 61.0371z" />
    <glyph glyph-name="uniF111" unicode="&#xf111;" 
d="M492.698 333.503c10.6592 0 19.2979 -8.63672 19.2979 -19.2959c0 -10.6582 -8.63867 -19.2969 -19.2969 -19.2969h-134.547l-203.267 -237.665c-3.66602 -4.28418 -9.02441 -6.75391 -14.665 -6.75391h-120.924c-10.6592 0 -19.2969 8.63672 -19.2969 19.2959
c0 10.6582 8.6377 19.2969 19.2969 19.2969h112.034l203.267 237.665c3.66602 4.29004 9.02441 6.75391 14.665 6.75391h143.436zM506.688 327.502c7.08105 -7.44824 7.08105 -19.1357 0 -26.584l-61.1055 -64.3213c-3.79492 -3.99414 -8.88965 -6.00781 -13.9902 -6.00781
c-4.77246 0 -9.55176 1.75586 -13.2891 5.30762c-7.72461 7.33887 -8.04102 19.5537 -0.694336 27.2783l48.4785 51.0322l-48.4785 51.0332c-7.3457 7.72461 -7.03027 19.9395 0.694336 27.2783c7.71191 7.34473 19.9326 7.03613 27.2793 -0.695312zM492.692 89.0898
c10.6572 0 19.2969 -8.63867 19.2969 -19.2959c0 -10.6582 -8.63184 -19.3027 -19.29 -19.3027h-143.436c-5.71191 0 -11.1221 2.52734 -14.7881 6.90137l-73.3262 87.4766c-6.84375 8.16895 -5.76855 20.332 2.39258 27.1816
c8.17578 6.85645 20.3516 5.76855 27.1826 -2.39258l67.5371 -80.5684h134.431zM227.748 239.062c6.81152 -8.19531 5.68555 -20.3652 -2.51465 -27.1758c-3.60156 -2.99121 -7.97559 -4.45117 -12.3174 -4.45117c-5.53809 0 -11.0312 2.37305 -14.8516 6.96582
l-66.9004 80.5098h-111.867c-10.6592 0 -19.2969 8.63965 -19.2969 19.2969c0 10.6582 8.6377 19.2959 19.2969 19.2959h120.924c5.7373 0 11.1719 -2.55371 14.8447 -6.96582zM506.688 83.083c7.08105 -7.44922 7.08105 -19.1367 0.000976562 -26.585l-61.1055 -64.3213
c-3.79492 -4.00098 -8.88965 -6.00781 -13.9902 -6.00781c-4.77246 0 -9.55176 1.75586 -13.2891 5.30664c-7.72461 7.33887 -8.04102 19.5537 -0.694336 27.2783l48.4785 51.0332l-48.4785 51.0322c-7.3457 7.72461 -7.03027 19.9453 0.694336 27.2783
c7.71191 7.34473 19.9326 7.04297 27.2793 -0.694336z" />
    <glyph glyph-name="uniF109" unicode="&#xf109;" 
d="M142.716 154.853c7.60352 -8.7041 6.71094 -21.9238 -1.99512 -29.5264c-3.96875 -3.4668 -8.87207 -5.16895 -13.7549 -5.16895c-5.83105 0 -11.6279 2.42773 -15.7705 7.15723l-106.026 121.371c-6.8916 7.88281 -6.8916 19.6504 0 27.5322l106.025 121.371
c7.60938 8.69824 20.8213 9.59082 29.5264 1.99512c8.70508 -7.60254 9.59082 -20.8223 1.99512 -29.5273l-94 -107.602zM359.93 283.381c83.8516 0 152.07 -68.2188 152.07 -152.062c0 -83.8447 -68.2256 -152.063 -152.07 -152.063h-311.102
c-11.5586 0 -20.9258 9.36816 -20.9258 20.9258c0 11.5586 9.36719 20.9268 20.9258 20.9268h311.102c60.7764 0 110.219 49.4404 110.219 110.211c0 60.7695 -49.4424 110.211 -110.219 110.211h-339.004c-11.5576 0 -20.9258 9.36816 -20.9258 20.9258
c0 11.5586 9.36816 20.9258 20.9258 20.9258h339.004z" />
    <glyph glyph-name="uniF123" unicode="&#xf123;" 
d="M492.219 343.499c10.2461 0 18.5498 -8.30469 18.5508 -18.5508c0 -10.2461 -8.30469 -18.5508 -18.5508 -18.5508h-128.706l-220.769 -259.367c-3.52441 -4.14258 -8.68848 -6.53027 -14.124 -6.53027h-110.069c-10.2461 0 -18.5508 8.30566 -18.5508 18.5518
s8.30469 18.5498 18.5508 18.5498h101.499l220.774 259.367c3.51758 4.14258 8.6875 6.53027 14.123 6.53027h137.271zM492.219 77.6016c10.2461 0 18.5498 -8.30371 18.5498 -18.5508c0 -10.2461 -8.30469 -18.5518 -18.5508 -18.5518h-137.276
c-5.43555 0 -10.6055 2.3877 -14.123 6.53027l-220.769 259.367h-101.499c-10.2461 0 -18.5508 8.30469 -18.5508 18.5508c0 10.2471 8.30469 18.5518 18.5508 18.5518h110.069c5.43555 0 10.5986 -2.3877 14.1299 -6.53027l220.763 -259.367h128.706zM506.515 338.112
c3.5 -3.47461 5.47656 -8.20117 5.4834 -13.1348s-1.94141 -9.66504 -5.43555 -13.1465l-85.9453 -85.9531c-3.61719 -3.62305 -8.36621 -5.43457 -13.1152 -5.43457s-9.49121 1.81152 -13.1152 5.42871c-7.24707 7.24707 -7.24707 18.9902 0 26.2373l72.7881 72.7881
l-72.7383 72.2188c-7.27246 7.21582 -7.31543 18.9658 -0.0986328 26.2373c7.20996 7.2666 18.9648 7.31543 26.2314 0.0927734zM506.563 72.167c3.48828 -3.48145 5.44238 -8.21875 5.43652 -13.1543c-0.00585938 -4.92969 -1.97949 -9.65918 -5.48535 -13.1279
l-85.9453 -85.335c-3.61133 -3.59277 -8.33691 -5.38574 -13.0664 -5.38574c-4.76855 0 -9.53516 1.83105 -13.165 5.48535c-7.2168 7.27148 -7.17383 19.0146 0.0986328 26.2314l72.7383 72.2188l-72.7881 72.7812c-7.24707 7.24121 -7.24707 18.9902 0 26.2314
c7.24707 7.24707 18.9844 7.24707 26.2314 0z" />
    <glyph glyph-name="uniF107" unicode="&#xf107;" 
d="M259.257 448c10.7939 0 19.542 -8.74805 19.542 -19.542v-310.066c0 -10.7939 -8.74805 -19.542 -19.542 -19.542s-19.542 8.74805 -19.542 19.542v310.066c0 10.7939 8.74805 19.542 19.542 19.542zM380.73 341.776c7.8877 -7.36719 8.30469 -19.7314 0.942383 -27.6191
c-7.36133 -7.88867 -19.7178 -8.31836 -27.6191 -0.951172l-94.7979 88.5186l-94.7979 -88.5186c-3.76465 -3.51758 -8.55273 -5.25684 -13.334 -5.25684c-5.22363 0 -10.4424 2.08496 -14.2852 6.20801c-7.36719 7.8877 -6.93652 20.252 0.951172 27.6191l108.133 100.967
c7.51074 7.00879 19.1641 7.00879 26.6748 0zM454.677 281.242c10.7939 0 19.542 -8.74902 19.542 -19.542v-306.158c0 -10.7939 -8.74805 -19.542 -19.542 -19.542h-397.354c-10.7939 0 -19.542 8.74805 -19.542 19.542v306.158c0 10.7939 8.74805 19.542 19.542 19.542
h104.224c10.7939 0 19.542 -8.74805 19.542 -19.542s-8.74805 -19.542 -19.542 -19.542h-84.6816v-267.074h358.27v267.074h-84.6816c-10.7939 0 -19.542 8.74805 -19.542 19.542s8.74805 19.542 19.542 19.542h104.224z" />
    <glyph glyph-name="uniF14A" unicode="&#xf14a;" 
d="M421.362 321.038c49.9756 0 90.6377 -40.6562 90.6377 -90.6377v-76.8008c0 -49.9814 -40.6631 -90.6377 -90.6377 -90.6377c-49.9834 0 -90.6455 40.6562 -90.6455 90.6377v77.4922c0 49.5947 40.6631 89.9463 90.6455 89.9463zM470.487 153.6v76.8008
c0 27.0869 -22.0371 49.124 -49.124 49.124s-49.1309 -21.7256 -49.1309 -48.4326v-77.4922c0 -27.0869 22.043 -49.124 49.1309 -49.124c27.0869 0 49.124 22.0361 49.124 49.124zM351.481 213.103c11.4648 0 20.7568 -9.29199 20.7578 -20.7568
c0 -11.4648 -9.29199 -20.7568 -20.7568 -20.7568h-309.969v-69.1816c0 -11.4727 -9.29199 -20.7646 -20.7568 -20.7646s-20.7568 9.29199 -20.7568 20.7578v89.9453c0 11.4648 9.29199 20.7568 20.7568 20.7568h330.725zM91.3301 213.103
c11.4639 0 20.7559 -9.29199 20.7568 -20.7568v-69.1885c0 -11.4648 -9.29199 -20.7568 -20.7568 -20.7568s-20.7568 9.29199 -20.7568 20.7568v69.1885c0 11.4648 9.29199 20.7568 20.7568 20.7568zM163.286 213.103c11.4648 0 20.7568 -9.29199 20.7568 -20.7568v-86.4854
c0 -11.4658 -9.29199 -20.7578 -20.7568 -20.7578s-20.7568 9.29199 -20.7568 20.7578v86.4854c0 11.4648 9.29199 20.7568 20.7568 20.7568z" />
    <glyph glyph-name="uniF158" unicode="&#xf158;" 
d="M444.456 217.729c10.6582 0 19.2959 -8.63867 19.2959 -19.2969v-243.135c0 -5.12695 -2.03223 -10.041 -5.66016 -13.6562c-3.61523 -3.60742 -8.51562 -5.64062 -13.6299 -5.64062h-0.0322266l-425.158 0.643555c-5.12012 0.00683594 -10.0283 2.0459 -13.6367 5.67383
c-3.62207 3.62109 -5.64062 8.53418 -5.63477 13.6543l0.642578 425.167c0.0205078 10.6455 8.65234 19.2646 19.2979 19.2646h243.135c10.6582 0 19.2959 -8.63867 19.2959 -19.2969c0 -10.6592 -8.64453 -19.2979 -19.2959 -19.2979h-223.865l-0.59082 -386.604
l386.541 -0.579102v223.807c0 10.6582 8.6377 19.2959 19.2959 19.2959zM492.703 448c10.6592 0 19.2969 -8.6377 19.2969 -19.2969v-139.577c0 -10.6582 -8.63867 -19.2959 -19.2969 -19.2959s-19.2959 8.6377 -19.2959 19.2959v120.281h-119.639
c-10.6582 0 -19.2969 8.6377 -19.2969 19.2959c0 10.6592 8.63965 19.2969 19.2969 19.2969h138.935zM506.346 442.346c7.53906 -7.53125 7.53906 -19.7529 0 -27.2852l-248.28 -248.28c-3.76367 -3.76953 -8.70312 -5.6543 -13.6436 -5.6543
c-4.93945 0 -9.87988 1.88477 -13.6426 5.6543c-7.53809 7.53125 -7.53809 19.7529 0 27.2852l248.281 248.28c7.53809 7.53906 19.7471 7.53906 27.2852 0z" />
    <glyph glyph-name="uniF139" unicode="&#xf139;" 
d="M117.207 82.8125c46.5967 0 84.5098 -32.9287 84.5098 -73.4004s-37.9131 -73.4121 -84.5098 -73.4121c-46.5977 0 -84.5107 32.9346 -84.5107 73.4062s37.9131 73.4062 84.5107 73.4062zM117.207 -26.9824c26.1914 0 47.498 16.3223 47.498 36.3945
c0 20.0664 -21.3125 36.3887 -47.498 36.3887c-26.1924 0 -47.499 -16.3223 -47.499 -36.3887c0 -20.0723 21.3066 -36.3945 47.499 -36.3945zM394.793 201.25c46.6045 0 84.5107 -32.9336 84.5107 -73.4062s-37.9072 -73.4004 -84.5107 -73.4004
c-46.6045 0 -84.5098 32.9287 -84.5098 73.4004s37.9062 73.4062 84.5098 73.4062zM394.793 91.4541c26.1924 0 47.499 16.3232 47.499 36.3887c0 20.0723 -21.3066 36.3945 -47.499 36.3945c-26.1914 0 -47.498 -16.3223 -47.498 -36.3945
c0 -20.0664 21.3066 -36.3887 47.498 -36.3887zM472.209 444.064c4.47949 -3.5166 7.09473 -8.88379 7.09473 -14.5762v-301.645h-37.0117v278.019l-240.575 -59.3418v-337.107h-37.0117v351.61c0 8.51172 5.80469 15.9268 14.0771 17.9688l277.586 68.4707
c5.51562 1.35742 11.3691 0.111328 15.8408 -3.39844zM187.597 221.527l-8.86035 35.9336l277.589 68.4463l8.86035 -35.9336z" />
    <glyph glyph-name="uniF14C" unicode="&#xf14c;" 
d="M493.714 411.429c10.1006 0 18.2861 -8.18555 18.2871 -18.2861v-402.285c0 -10.1006 -8.18555 -18.2861 -18.2861 -18.2861h-475.429c-10.1006 0 -18.2861 8.18555 -18.2861 18.2861v402.285c0 10.1006 8.18555 18.2861 18.2861 18.2861h475.428zM475.429 9.14258
h-0.000976562v365.715h-438.856v-365.715h438.857zM217.783 271.183l215.771 -265.758l-28.3975 -23.0459l-205.721 253.379l-172.275 -104.503l-18.9619 31.2754l185.904 112.761c7.82031 4.74219 17.9209 2.98145 23.6807 -4.1084zM379.508 273.487l126.78 -109.715
l-23.9297 -27.6602l-114.249 98.877l-83.0664 -78.8115l-25.167 26.5391l95.0859 90.209c6.82129 6.47949 17.4395 6.71094 24.5459 0.561523z" />
    <glyph glyph-name="uniF170" unicode="&#xf170;" 
d="M223.418 297.309c69.6211 0 126.255 -56.6338 126.255 -126.255c0 -69.6143 -56.6396 -126.255 -126.255 -126.255s-126.255 56.6348 -126.255 126.255c0 69.6152 56.6348 126.255 126.255 126.255zM223.418 79.709c50.3682 0 91.3457 40.9775 91.3447 91.3457
c0 50.3682 -40.9766 91.3457 -91.3447 91.3457s-91.3447 -40.9785 -91.3447 -91.3467s40.9766 -91.3447 91.3447 -91.3447zM430.545 256c9.64062 0 17.4551 -7.81445 17.4551 -17.4551s-7.81445 -17.4551 -17.4551 -17.4551h-52.3643
c-9.64062 0 -17.4551 7.81445 -17.4551 17.4551s7.81445 17.4551 17.4551 17.4551h52.3643zM482.909 349.091c16.041 0 29.0908 -13.0498 29.0908 -29.0908v-314.182c0 -16.041 -13.0498 -29.0918 -29.0908 -29.0918h-453.818c-16.041 0 -29.0908 13.0508 -29.0908 29.0918
v314.182c0 16.041 13.0498 29.0908 29.0908 29.0908h83.2061l29.8242 49.7051c3.15918 5.25977 8.83789 8.47754 14.9697 8.47754h139.637c6.13281 0 11.8115 -3.21777 14.9648 -8.47754l29.8232 -49.7051h141.394zM477.091 11.6357v302.546h-145.455
c-6.13184 0 -11.8096 3.21777 -14.9639 8.47754l-29.8242 49.7051h-119.872l-29.8232 -49.7051c-3.15918 -5.25977 -8.83789 -8.47754 -14.9707 -8.47754h-87.2725v-302.546h442.182z" />
    <glyph glyph-name="uniF102" unicode="&#xf102;" 
d="M437.895 97.123h33.6846v-115.088c0 -9.30176 -7.54004 -16.8418 -16.8418 -16.8418h-397.475c-31.5723 0 -57.2627 25.6895 -57.2627 57.2627v325.053h33.6836v-325.053c0 -13.2207 10.3584 -23.5791 23.5791 -23.5791h380.632v98.2461zM495.158 206.035
c9.30176 0 16.8418 -7.54004 16.8418 -16.8418v-92.0703c0 -9.30176 -7.54004 -16.8418 -16.8418 -16.8418h-127.439c-9.30176 0 -16.8418 7.54004 -16.8418 16.8418v92.0703c0 9.30176 7.54004 16.8418 16.8418 16.8418h127.439zM478.316 113.965v58.3857h-93.7549
v-58.3857h93.7549zM454.175 317.754c9.30273 0 16.8428 -7.53906 16.8418 -16.8418v-112.28h-33.6836v95.4395h-369.965c-37.1484 0 -67.3682 30.2197 -67.3682 67.3682c0 37.1475 30.2197 67.3672 67.3682 67.3672h329.544c9.30176 0 16.8418 -7.54004 16.8418 -16.8418
v-84.2109h40.4209zM380.07 317.754v67.3682h-312.702c-18.8848 0 -33.6846 -14.7988 -33.6846 -33.6836c0 -18.8857 14.7988 -33.6846 33.6846 -33.6846h312.702zM396.912 367.719c9.30273 0 16.8418 -7.54004 16.8418 -16.8418s-7.54004 -16.8418 -16.8418 -16.8418
h-328.982c-9.30176 0 -16.8418 7.54004 -16.8418 16.8418s7.54004 16.8418 16.8418 16.8418h328.982z" />
    <glyph glyph-name="uniF167" unicode="&#xf167;" 
d="M411.861 234.313c55.8691 -3.87402 100.139 -50.3311 100.139 -106.878c0 -59.0762 -48.0654 -107.136 -107.137 -107.136h-297.163c-59.3867 0 -107.7 48.0596 -107.7 107.136c0 56.5684 44.0732 103.043 99.6816 106.884
c13.7812 73.6699 79.665 129.381 156.318 129.381c76.9131 0 142.582 -55.6992 155.861 -129.387zM404.863 54.1318c41.1064 0 73.3037 32.1982 73.3037 73.3037c0 40.4248 -33.1387 73.3047 -73.8682 73.3047h-7.33008c-8.83105 0 -16.1777 6.79492 -16.8662 15.5967
c-4.97363 63.667 -59.4883 113.531 -124.104 113.531c-64.4336 0 -119.204 -49.9258 -124.679 -113.661c-0.75 -8.75098 -8.07422 -15.4668 -16.8545 -15.4668h-7.33008c-41.1064 0 -73.3037 -32.1973 -73.3037 -73.3047c0 -40.4189 33.1338 -73.3037 73.8682 -73.3037
h297.163z" />
    <glyph glyph-name="uniF138" unicode="&#xf138;" 
d="M229.322 258.98c9.4043 0 17.0273 -7.62305 17.0283 -17.0293v-99.9023c0 -9.40625 -7.62305 -17.0293 -17.0283 -17.0293c-9.40625 0 -17.0293 7.62305 -17.0293 17.0293v99.9023c0 9.40625 7.62305 17.0293 17.0293 17.0293zM176.532 311.769
c9.40625 0 17.0283 -7.62207 17.0283 -17.0273v-205.483c0 -9.41113 -7.62207 -17.0342 -17.0283 -17.0342s-17.0293 7.62305 -17.0293 17.0293v205.487c0 9.40625 7.62305 17.0283 17.0293 17.0283zM123.175 361.153c9.40625 0 17.0293 -7.62305 17.0293 -17.0293v-304.248
c0 -9.40625 -7.62305 -17.0293 -17.0293 -17.0293s-17.0283 7.62305 -17.0283 17.0293v304.248c0 9.40625 7.62207 17.0293 17.0283 17.0293zM70.3857 311.769c9.40527 0 17.0293 -7.62207 17.0293 -17.0273v-205.483c0 -9.41113 -7.62305 -17.0342 -17.0293 -17.0342
c-9.40527 0 -17.0283 7.62305 -17.0283 17.0293v205.487c0 9.40625 7.62305 17.0283 17.0283 17.0283zM17.0293 262.386c9.4043 0 17.0283 -7.62305 17.0283 -17.0283v-106.715c0 -9.41016 -7.62305 -17.0283 -17.0283 -17.0283
c-9.40625 0 -17.0293 7.62305 -17.0293 17.0283v106.715c0 9.40527 7.62305 17.0283 17.0293 17.0283zM388.825 361.153c9.40527 0 17.0283 -7.62305 17.0283 -17.0293v-304.248c0 -9.40625 -7.62207 -17.0293 -17.0283 -17.0293s-17.0293 7.62305 -17.0293 17.0293v304.248
c0 9.40625 7.62305 17.0293 17.0293 17.0293zM335.468 311.769c9.40527 0 17.0293 -7.62207 17.0293 -17.0273v-205.483c0 -9.41113 -7.62305 -17.0342 -17.0293 -17.0342s-17.0283 7.62305 -17.0283 17.0293v205.487c0 9.40625 7.62207 17.0283 17.0283 17.0283z
M282.679 285.091c9.40527 0 17.0283 -7.62305 17.0293 -17.0293v-152.123c0 -9.41113 -7.62305 -17.0293 -17.0293 -17.0293c-9.40527 0 -17.0283 7.62305 -17.0283 17.0293v152.123c0 9.40625 7.62305 17.0293 17.0283 17.0293zM441.614 311.769
c9.40527 0 17.0283 -7.62207 17.0283 -17.0273v-205.483c0 -9.41113 -7.62305 -17.0342 -17.0283 -17.0342c-9.40625 0 -17.0293 7.62305 -17.0293 17.0293v205.487c0 9.40625 7.62305 17.0283 17.0293 17.0283zM494.971 262.386
c9.40625 0 17.0293 -7.62305 17.0293 -17.0283v-106.715c0 -9.41016 -7.62305 -17.0283 -17.0293 -17.0283c-9.40527 0 -17.0283 7.62305 -17.0283 17.0283v106.715c0 9.40527 7.62305 17.0283 17.0283 17.0283z" />
    <glyph glyph-name="uniF17D" unicode="&#xf17d;" 
d="M424.585 329.366c10.3467 0 18.7324 -8.38574 18.7334 -18.7324v-237.268c0 -10.3467 -8.38672 -18.7324 -18.7324 -18.7324h-405.854c-10.3467 0 -18.7324 8.38574 -18.7324 18.7324v237.268c0 10.3467 8.38574 18.7324 18.7324 18.7324h405.853zM405.854 92.0977
h-0.000976562v199.805h-368.39v-199.805h368.391zM493.268 273.171c10.3467 0 18.7324 -8.38574 18.7324 -18.7314v-124.878c0 -10.3457 -8.38574 -18.7314 -18.7324 -18.7314h-68.6826v37.4629h49.9512v87.415h-49.9512v37.4629h68.6826zM187.317 251.317
c10.3457 0 18.7314 -8.38574 18.7314 -18.7324v-74.9268c0 -10.3467 -8.38574 -18.7324 -18.7314 -18.7324c-10.3467 0 -18.7324 8.38574 -18.7324 18.7324v74.9268c0 10.3457 8.38574 18.7324 18.7324 18.7324zM106.146 251.317
c10.3457 0 18.7314 -8.38574 18.7314 -18.7324v-74.9268c0 -10.3467 -8.38574 -18.7324 -18.7314 -18.7324c-10.3467 0 -18.7324 8.38574 -18.7324 18.7324v74.9268c0 10.3457 8.38574 18.7324 18.7324 18.7324zM268.488 251.317
c10.3457 0 18.7314 -8.38574 18.7314 -18.7324v-74.9268c0 -10.3467 -8.38574 -18.7324 -18.7314 -18.7324c-10.3467 0 -18.7324 8.38574 -18.7324 18.7324v74.9268c0 10.3457 8.38574 18.7324 18.7324 18.7324z" />
    <glyph glyph-name="uniF169" unicode="&#xf169;" 
d="M497.36 378.005c7.52539 -7.54492 7.5127 -19.7656 -0.0380859 -27.291l-245.709 -245.064c-3.61523 -3.60254 -8.52246 -5.62793 -13.623 -5.62793c-0.134766 0 -0.271484 0 -0.412109 0.00585938c-5.24902 0.108398 -10.2275 2.35352 -13.7842 6.21973l-97.126 105.48
c-7.2168 7.8418 -6.71484 20.0498 1.12598 27.2666c7.84668 7.21582 20.0488 6.70801 27.2656 -1.12598l83.5225 -90.7129l231.493 230.882c7.53223 7.52637 19.7529 7.5127 27.2852 -0.0322266zM492.703 211.297c10.6592 0 19.2969 -8.63867 19.2969 -19.2969
c0 -141.154 -114.846 -256 -256 -256c-141.16 0 -256 114.846 -256 256c0 141.16 114.84 256 256 256c10.6582 0 19.2969 -8.6377 19.2969 -19.2969c0 -10.6582 -8.63867 -19.2959 -19.2969 -19.2959c-119.876 0 -217.407 -97.5312 -217.407 -217.407
c0 -119.883 97.5312 -217.407 217.407 -217.407c119.883 0 217.407 97.5244 217.407 217.407c0 10.6592 8.6377 19.2969 19.2959 19.2969z" />
    <glyph glyph-name="uniF17C" unicode="&#xf17c;" 
d="M374.857 380.952c10.0996 0 18.2852 -8.18652 18.2852 -18.2852v-408.382c0 -10.1006 -8.18555 -18.2861 -18.2852 -18.2861h-237.715c-10.0996 0 -18.2852 8.18555 -18.2852 18.2861v408.381c0 10.0996 8.18555 18.2861 18.2852 18.2861h237.715zM356.571 -27.4287
h0.000976562v371.81h-201.144v-371.81h201.143zM320 448c10.0996 0 18.2861 -8.18555 18.2852 -18.2861v-67.0469h-36.5713v48.7617h-91.4287v-48.7627h-36.5713v67.0479c0 10.1006 8.18652 18.2861 18.2861 18.2861h128zM298.667 265.143
c10.0986 0 18.2852 -8.18555 18.2861 -18.2852c0 -10.1006 -8.18652 -18.2861 -18.2861 -18.2861h-85.333c-10.0996 0 -18.2861 8.18555 -18.2861 18.2861c0 10.0996 8.18652 18.2852 18.2861 18.2852h85.333zM256 307.81c10.0996 0 18.2861 -8.18555 18.2861 -18.2852
v-85.333c0 -10.1006 -8.18652 -18.2861 -18.2861 -18.2861s-18.2861 8.18555 -18.2861 18.2861v85.333c0 10.0996 8.18652 18.2852 18.2861 18.2852zM298.667 51.8096c10.0986 0 18.2861 -8.18555 18.2861 -18.2852c0 -10.1006 -8.18652 -18.2861 -18.2861 -18.2861h-85.333
c-10.0996 0 -18.2861 8.18555 -18.2861 18.2861c0 10.0996 8.18652 18.2852 18.2861 18.2852h85.333z" />
    <glyph glyph-name="uniF108" unicode="&#xf108;" 
d="M418.54 254.828c17.2354 0 31.2568 -14.0225 31.2578 -31.2578v-256.312c0 -17.2354 -14.0225 -31.2578 -31.2578 -31.2578h-325.08c-17.2354 0 -31.2568 14.0225 -31.2578 31.2568v256.313c0 17.2354 14.0225 31.2578 31.2578 31.2578h325.08zM412.288 -26.4912v243.811
h-312.576v-243.811h312.576zM254.75 448c80.0508 -0.712891 145.035 -66.6162 145.036 -146.911v-62.5146c0 -10.3594 -8.39648 -18.7549 -18.7549 -18.7549c-10.3594 0 -18.7549 8.39551 -18.7549 18.7549v62.5146c0 59.7959 -48.3125 108.871 -107.695 109.402
c-39.8789 0 -77.4688 -23.418 -95.5859 -59.6523c-4.63184 -9.25781 -15.8916 -13.0215 -25.1621 -8.38281c-9.26367 4.63184 -13.0225 15.8965 -8.38281 25.1621c24.418 48.8311 75.168 80.3818 129.3 80.3818zM256 117.294c10.3594 0 18.7549 -8.39551 18.7549 -18.7539
v-43.7617c0 -10.3652 -8.39551 -18.7549 -18.7549 -18.7549s-18.7549 8.39551 -18.7549 18.7549v43.7607c0 10.3594 8.39551 18.7549 18.7549 18.7549z" />
    <glyph glyph-name="uniF178" unicode="&#xf178;" 
d="M448.155 366.179c10.2705 0 18.5957 -8.32324 18.5957 -18.5947v-392.988c0 -10.2705 -8.3252 -18.5957 -18.5957 -18.5957h-343.4c-32.8086 0 -59.5059 26.6973 -59.5059 59.5059v392.988c0 32.8086 26.6982 59.5059 59.5059 59.5059h293.812
c10.2705 0 18.5947 -8.3252 18.5947 -18.5957v-63.2256h30.9932zM104.755 410.809c-12.0986 0 -22.3135 -10.2148 -22.3145 -22.3145c0 -12.7197 9.5957 -22.3154 22.3145 -22.3154h275.216v44.6299h-275.216zM429.559 -26.8086v355.797h-324.804
c-7.92773 0 -15.4531 1.47461 -22.3145 4.17773v-337.66c0 -12.0938 10.2148 -22.3145 22.3145 -22.3145h324.804zM236.165 346.964h37.1914v-186.576c0 -6.70703 -3.6084 -12.8926 -9.44727 -16.1904c-2.84473 -1.60547 -6 -2.40527 -9.14941 -2.40527
c-3.32812 0 -6.65039 0.892578 -9.59473 2.67188l-38.7529 23.3438l-38.7471 -23.3496c-5.73926 -3.46484 -12.9053 -3.56543 -18.7441 -0.266602c-5.83887 3.30371 -9.45312 9.48926 -9.45312 16.1963v186.576h37.1914v-153.662l20.1504 12.1436
c5.90137 3.55762 13.2969 3.55762 19.1973 0l20.1582 -12.1436v153.662z" />
    <glyph glyph-name="uniF171" unicode="&#xf171;" 
d="M474.988 398.651c17.0068 0 30.8428 -13.8369 30.8428 -30.8447v-400.964c0 -17.0068 -13.8359 -30.8428 -30.8428 -30.8428h-437.977c-17.0068 0 -30.8428 13.8359 -30.8428 30.8438v400.964c0 17.0078 13.8359 30.8438 30.8428 30.8438h437.977zM468.819 -26.9883
h0.000976562v388.627h-425.64v-388.627h425.639zM24.6748 238.265v37.0127h462.651v-37.0127h-462.651zM135.711 448c10.2207 0 18.5059 -8.28516 18.5059 -18.5059v-98.6992c0 -10.2207 -8.28516 -18.5059 -18.5059 -18.5059s-18.5059 8.28516 -18.5059 18.5059v98.6992
c0 10.2207 8.28516 18.5059 18.5059 18.5059zM382.458 448c10.2207 0 18.5059 -8.28516 18.5059 -18.5059v-98.6992c0 -10.2207 -8.28516 -18.5059 -18.5059 -18.5059s-18.5059 8.28516 -18.5059 18.5059v98.6992c0 10.2207 8.28516 18.5059 18.5059 18.5059z
M326.94 77.8799c10.2207 0 18.5059 -8.28516 18.5059 -18.5059s-8.28516 -18.5059 -18.5059 -18.5059h-135.712c-10.2207 0 -18.5059 8.28516 -18.5059 18.5059s8.28516 18.5059 18.5059 18.5059h135.712zM326.94 164.241c10.2207 0 18.5059 -8.28418 18.5059 -18.5059
c0 -10.2227 -8.28516 -18.5068 -18.5059 -18.5068h-135.712c-10.2207 0 -18.5059 8.28516 -18.5059 18.5068c0 10.2207 8.28516 18.5059 18.5059 18.5059h135.712z" />
    <glyph glyph-name="uniF16A" unicode="&#xf16a;" 
d="M345.154 287.522c10.5518 0 19.1035 -8.55273 19.1035 -19.1045s-8.55176 -19.1035 -19.1035 -19.1035h-178.309c-10.5518 0 -19.1035 8.55176 -19.1035 19.1035s8.55176 19.1045 19.1035 19.1045h178.309zM345.154 211.104c10.5518 0 19.1035 -8.55176 19.1035 -19.1035
s-8.55176 -19.1035 -19.1035 -19.1035h-178.309c-10.5518 0 -19.1035 8.55176 -19.1035 19.1035s8.55176 19.1035 19.1035 19.1035h178.309zM345.154 134.687c10.5518 0 19.1035 -8.55176 19.1035 -19.1035s-8.55176 -19.1045 -19.1035 -19.1045h-178.309
c-10.5518 0 -19.1035 8.55273 -19.1035 19.1045s8.55176 19.1035 19.1035 19.1035h178.309zM256 448c138.699 0 251.542 -112.844 251.542 -251.542s-112.843 -251.542 -251.542 -251.542c-28.873 0 -56.6582 4.71875 -82.6777 14.042l-129.917 -22.6709
c-1.0957 -0.198242 -2.19727 -0.287109 -3.28613 -0.287109c-5.76953 0 -11.3096 2.61719 -14.9707 7.24121c-4.34961 5.48926 -5.34961 12.9141 -2.59863 19.3584l34.292 80.4043c-14.4355 18.4814 -26.2295 39.1963 -35.1328 61.7461
c-11.4561 29.3574 -17.251 60.1924 -17.251 91.708c0 138.698 112.844 251.542 251.542 251.542zM256 -16.876c117.633 0 213.333 95.7021 213.333 213.334s-95.7002 213.333 -213.333 213.333s-213.333 -95.7012 -213.333 -213.333
c0 -26.7461 4.91602 -52.9072 14.6152 -77.749c8.8125 -22.333 20.9766 -42.5518 36.1201 -60.0264c4.78125 -5.52051 5.99902 -13.291 3.13281 -20.0088l-25.04 -58.708l100.344 17.5117c3.40137 0.605469 6.90918 0.255859 10.1377 -0.986328
c23.0781 -8.87109 47.9844 -13.3672 74.0234 -13.3672z" />
    <glyph glyph-name="uniF181" unicode="&#xf181;" 
d="M487.299 212.589c11.373 0 20.5898 -9.2168 20.5898 -20.5908c0 -11.373 -9.21777 -20.5898 -20.5898 -20.5898h-466.709c-11.373 0 -20.5898 9.22461 -20.5898 20.5898c0 11.3662 9.21777 20.5908 20.5898 20.5908h466.709zM505.967 206.562
c8.04395 -8.03613 8.04395 -21.0771 0 -29.1211l-201.775 -201.783c-4.02246 -4.02148 -9.28613 -6.0332 -14.5576 -6.0332c-5.27051 0 -10.5352 2.01172 -14.5566 6.0332c-8.04492 8.03711 -8.04492 21.0771 0 29.1143l187.218 187.227l-187.218 187.226
c-8.04492 8.03711 -8.04492 21.0781 0 29.1221c8.04395 8.03711 21.0703 8.03711 29.1143 0z" />
    <glyph glyph-name="uniF10D" unicode="&#xf10d;" 
d="M438.94 285.934h34.791v-310.795c0 -9.60742 -7.78711 -17.3945 -17.3955 -17.3945h-400.091c-9.6084 0 -17.3955 7.78711 -17.3955 17.3945v310.795h34.79v-293.399h365.301v293.399zM494.605 426.256c9.60742 0 17.3945 -7.78711 17.3936 -17.3945v-122.927
c0 -9.60742 -7.78711 -17.3945 -17.3955 -17.3945h-477.209c-9.60742 0 -17.3945 7.78711 -17.3945 17.3945v122.927c0 9.60742 7.78711 17.3945 17.3945 17.3945h477.211zM477.21 303.33v88.1348h-442.42v-88.1348h442.42zM358.922 224.471
c9.6084 0 17.3955 -7.78711 17.3955 -17.3945v-82.917c0 -9.6084 -7.78125 -17.3955 -17.3955 -17.3955h-205.264c-9.6084 0 -17.3955 7.78711 -17.3955 17.3955v82.917c0 9.60742 7.78711 17.3945 17.3955 17.3945h205.264zM341.527 141.554h-0.000976562v48.127h-170.474
v-48.127h170.475z" />
    <glyph glyph-name="uniF16D" unicode="&#xf16d;" 
d="M423.062 441.645c3.62402 -4.04395 5.35645 -9.44336 4.76465 -14.8447l-25.4736 -231.163c-1.06348 -9.67285 -9.25293 -17.0088 -18.9893 -17.0088h-362.985c-10.5518 0 -19.1035 8.55176 -19.1035 19.1045v231.164c0 10.5518 8.55176 19.1035 19.1035 19.1035h388.458
c5.43164 0 10.6035 -2.31152 14.2256 -6.35547zM366.252 216.836l21.2637 192.955h-348.032v-192.955h326.769zM491.622 409.791c10.5518 0 19.1035 -8.55176 19.1025 -19.1045v-154.746c0 -10.5527 -8.55176 -19.1045 -19.1035 -19.1045h-103.801v38.209h84.6963v116.537
h-68.7754v38.209h87.8809zM195.502 197.731h38.21v-157.931c0 -24.5752 -19.9961 -44.5771 -44.5771 -44.5771h-157.294v38.209h157.293c3.45117 0 6.36816 2.91602 6.36816 6.36816v157.931zM31.8408 99.6621c10.5518 0 19.1045 -8.55273 19.1045 -19.1055v-125.451
c0 -10.5586 -8.55273 -19.1045 -19.1045 -19.1045s-19.1035 8.55176 -19.1035 19.1045v125.452c0 10.5527 8.55176 19.1045 19.1035 19.1045z" />
    <glyph glyph-name="uniF101" unicode="&#xf101;" 
d="M256 448c114.638 0 207.903 -93.2646 207.903 -207.903c0 -114.638 -93.2656 -207.902 -207.903 -207.902s-207.903 93.2646 -207.903 207.902c0 114.639 93.2656 207.903 207.903 207.903zM256 69.4297c94.1025 0 170.667 76.5645 170.667 170.667
c0 94.1094 -76.5654 170.667 -170.667 170.667c-94.1094 0 -170.667 -76.5576 -170.667 -170.667c0 -94.1025 76.5576 -170.667 170.667 -170.667zM256 358.633c65.3564 0 118.536 -53.1738 118.536 -118.536c0 -65.3555 -53.1797 -118.536 -118.536 -118.536
c-65.3623 0 -118.536 53.1748 -118.536 118.536c0 65.3623 53.1738 118.536 118.536 118.536zM256 158.798c44.833 0 81.2988 36.4668 81.2988 81.2988s-36.4668 81.2998 -81.2988 81.2998s-81.2988 -36.4668 -81.2988 -81.2998
c0 -44.8252 36.4658 -81.2988 81.2988 -81.2988zM423.402 -35.7998c3.45703 -5.75293 3.54395 -12.9141 0.235352 -18.7539c-3.30762 -5.83984 -9.50098 -9.44629 -16.21 -9.44629h-302.855c-6.70898 0 -12.8965 3.60547 -16.2041 9.43945
c-3.30176 5.83984 -3.21484 13.0078 0.242188 18.7549l68.8887 114.812l31.9297 -19.1641l-51.9697 -86.6055h237.09l-51.9697 86.6113l31.9297 19.1641z" />
    <glyph glyph-name="uniF106" unicode="&#xf106;" 
d="M316.919 93.084c7.37109 -7.32715 7.40918 -19.2471 0.0742188 -26.6123l-116.695 -117.315c-8.76367 -8.77148 -20.0059 -13.1562 -31.2363 -13.1562c-11.2227 0 -22.4336 4.36719 -31.1729 13.1064l-124.876 125.509
c-8.38086 8.38184 -13.0107 19.4609 -13.0107 31.1611c0 11.6992 4.62988 22.7783 13.043 31.1914l117.347 116.721c7.37207 7.32715 19.2852 7.30176 26.6191 -0.0693359c7.32812 -7.37207 7.30273 -19.2852 -0.0683594 -26.6191l-117.316 -116.689
c-1.63086 -1.63086 -1.98242 -3.375 -1.98242 -4.53516c0 -1.17383 0.351562 -2.91113 2.02051 -4.57324l124.876 -125.502c2.66016 -2.6543 6.41113 -2.6543 9.10938 0.03125l116.656 117.277c7.32812 7.37695 19.248 7.40332 26.6133 0.0751953zM498.884 310.119
c17.4854 -17.4971 17.4854 -44.8867 0.000976562 -62.3721l-117.354 -116.739c-3.66992 -3.65039 -8.4707 -5.47656 -13.2695 -5.47656c-4.83691 0 -9.66797 1.85059 -13.3438 5.55176c-7.33398 7.36621 -7.2959 19.2852 0.0751953 26.6133l117.315 116.694
c2.6543 2.65332 2.6543 6.41113 -0.0439453 9.10938l-124.839 124.838c-1.66797 1.66895 -3.40625 2.02051 -4.57324 2.02051c-1.17285 0 -2.90918 -0.351562 -4.57227 -2.02051l-116.651 -117.278c-7.32812 -7.37012 -19.2412 -7.39648 -26.6191 -0.0683594
c-7.37109 7.32812 -7.40234 19.248 -0.0683594 26.6191l116.688 117.315c8.45117 8.43848 19.5244 13.0742 31.2236 13.0742c11.7002 0 22.7793 -4.62988 31.1924 -13.043zM351.455 287.522c7.35254 -7.34766 7.35254 -19.2676 -0.000976562 -26.6133l-164.368 -164.368
c-3.66992 -3.67578 -8.48828 -5.51367 -13.3057 -5.51367c-4.81836 0 -9.63672 1.83789 -13.3066 5.51367c-7.35254 7.34668 -7.35254 19.2666 0 26.6133l164.368 164.368c7.35352 7.35254 19.2598 7.35254 26.6133 0z" />
    <glyph glyph-name="uniF162" unicode="&#xf162;" 
d="M491.683 361.99c11.2227 0 20.3174 -9.09668 20.3164 -20.3174c0 -1.80176 -0.230469 -3.54883 -0.676758 -5.21484v-294.131c0 -11.2217 -9.0957 -20.3174 -20.3174 -20.3174h-358.266c-6.38574 0 -12.4072 3.00781 -16.2471 8.11328l-112.423 149.68
c-5.43848 7.24707 -5.42578 17.2227 0.0332031 24.4492l113.102 149.672c3.83984 5.0791 9.83984 8.06641 16.2129 8.06641h358.266zM470.688 62.6455v258.709h-327.159l-97.7744 -129.388l97.1387 -129.321h327.795zM379.456 255.763
c7.90234 -7.96387 7.8623 -20.8252 -0.102539 -28.7354l-99.5557 -98.8848c-3.96191 -3.93555 -9.13672 -5.89941 -14.3174 -5.89941c-5.22168 0 -10.4434 2.00391 -14.4121 6c-7.90332 7.96484 -7.86328 20.8262 0.0947266 28.7363l99.5566 98.8779
c7.96484 7.90332 20.8262 7.86914 28.7363 -0.0947266zM379.36 156.979c7.96484 -7.91016 8.00586 -20.7715 0.101562 -28.7373c-3.98242 -3.99512 -9.19727 -6 -14.4248 -6c-5.18164 0 -10.3555 1.96387 -14.3174 5.89941l-99.5566 98.8848
c-7.95801 7.9043 -8.00488 20.7725 -0.0947266 28.7363c7.91113 7.96484 20.7783 8.00488 28.7363 0.0947266z" />
    <glyph glyph-name="uniF15F" unicode="&#xf15f;" 
d="M440.749 448c10.4482 0 18.916 -8.46777 18.916 -18.916v-474.167c0 -10.4482 -8.46777 -18.916 -18.916 -18.916h-369.498c-10.4482 0 -18.916 8.46777 -18.916 18.916v474.167c0 10.4482 8.46777 18.916 18.916 18.916h369.498zM421.832 -26.167v436.334h-331.665
v-436.334h331.665zM363.823 371.704c10.4482 0 18.916 -8.46777 18.916 -18.916v-97.7344c0.00585938 -10.4473 -8.46191 -18.916 -18.9102 -18.916h-216.282c-10.4482 0 -18.916 8.46875 -18.916 18.916v97.7344c0 10.4482 8.46777 18.916 18.916 18.916h216.276z
M344.906 273.97v59.9014h-178.443v-59.9014h178.443zM356.887 190.108c10.4482 0 18.916 -8.46875 18.916 -18.916c0 -10.4482 -8.46777 -18.916 -18.916 -18.916h-209.34c-10.4482 0 -18.916 8.46777 -18.916 18.916c0 10.4473 8.46777 18.916 18.916 18.916h209.34z
M364.453 120.118c10.4482 0 18.916 -8.46777 18.916 -18.916s-8.46191 -18.916 -18.916 -18.916h-216.906c-10.4482 0 -18.916 8.46777 -18.916 18.916s8.46777 18.916 18.916 18.916h216.906zM364.453 50.1279c10.4482 0 18.916 -8.46777 18.916 -18.916
s-8.46191 -18.916 -18.916 -18.916h-216.906c-10.4482 0 -18.916 8.46777 -18.916 18.916s8.46777 18.916 18.916 18.916h216.906z" />
    <glyph glyph-name="uniF150" unicode="&#xf150;" 
d="M138.105 226.358c11.1621 0 20.2109 -9.04883 20.2109 -20.2109v-249.263c0 -11.1631 -9.04883 -20.2109 -20.2109 -20.2109c-76.1533 0 -138.105 64.9775 -138.105 144.842c0 79.8652 61.9521 144.843 138.105 144.843zM117.895 -20.6553v204.342
c-44.2002 -9.9707 -77.4736 -52.002 -77.4736 -102.171s33.2744 -92.1992 77.4736 -102.171zM373.895 227.032c76.1533 0 138.105 -64.9785 138.105 -144.843c0 -79.8652 -61.9521 -144.843 -138.105 -144.843c-11.1621 0 -20.2109 9.04785 -20.2109 20.2109v249.264
c0 11.1631 9.04883 20.2109 20.2109 20.2109zM394.105 -19.9814c44.2002 9.9707 77.4736 51.9951 77.4736 102.171s-33.2744 92.1934 -77.4736 102.171v-204.342zM256 447.326c140.787 0 255.326 -114.539 255.326 -255.326v-117.895h-40.4209v117.895
c0 118.494 -96.4043 214.905 -214.905 214.905s-214.905 -96.4111 -214.905 -214.905v-117.895h-40.4209v117.895c0 140.787 114.539 255.326 255.326 255.326z" />
    <glyph glyph-name="uniF14B" unicode="&#xf14b;" 
d="M495.484 329.359c9.12207 0 16.5156 -7.39453 16.5156 -16.5166v-311.604c0 -9.12207 -7.39355 -16.5166 -16.5156 -16.5166h-403.544c-9.12207 0 -16.5166 7.39453 -16.5166 16.5166v69.3682h33.0322v-52.8525h370.512v278.572h-64.4131v33.0322h80.9297z
M430.52 74.8398c0.358398 -1.34863 0.551758 -2.77441 0.551758 -4.23926c0 -9.12305 -7.39453 -16.5107 -16.5166 -16.5107h-398.039c-9.12207 0 -16.5156 7.39453 -16.5156 16.5166v312.154c0 9.12305 7.39355 16.5166 16.5156 16.5166h397.488
c9.12207 0 16.5156 -7.39453 16.5156 -16.5166v-307.921zM397.488 87.123v279.122h-364.456v-279.122h364.456zM264.258 345.875c27.0156 0 48.998 -21.9834 48.998 -48.998s-21.9824 -48.998 -48.998 -48.998c-27.0146 0 -48.998 21.9834 -48.998 48.998
s21.9834 48.998 48.998 48.998zM264.258 280.912c8.80957 0 15.9658 7.16211 15.9658 15.9658s-7.15625 15.9658 -15.9658 15.9658c-8.80371 0 -15.9658 -7.16211 -15.9658 -15.9658s7.16309 -15.9658 15.9658 -15.9658zM288.333 139.424
c3.48047 -5.05371 3.86523 -11.6172 1.01367 -17.0449c-2.8623 -5.43359 -8.48926 -8.83105 -14.6279 -8.83105h-193.238c-6.12891 0 -11.749 3.39258 -14.6064 8.80957c-2.8584 5.41797 -2.4834 11.9746 0.973633 17.0332l96.3447 140.938
c3.07129 4.49805 8.16504 7.19043 13.6143 7.19629h0.0224609c5.43848 0 10.5312 -2.67676 13.6094 -7.15723zM112.772 146.581h130.549l-65.459 95.2158zM373.49 140.393c3.97461 -4.9541 4.75098 -11.7539 1.99707 -17.4785
c-2.74707 -5.72559 -8.53809 -9.36523 -14.8867 -9.36523h-128.825v33.0322h94.4277l-30.0039 37.4424l-28.9531 -36.1924l-25.7979 20.6338l41.8408 52.3008c3.13281 3.91406 7.87891 6.19336 12.8936 6.19922h0.00683594c5.00977 0 9.75 -2.2793 12.8877 -6.1875z" />
    <glyph glyph-name="uniF179" unicode="&#xf179;" 
d="M433.493 448c18.8223 0 34.1338 -15.3115 34.1328 -34.1328v-286.72h-40.96v279.893h-341.333v-279.893h-40.96v286.72c0 18.8213 15.3125 34.1328 34.1338 34.1328h354.986zM256 147.627c11.3115 0 20.4805 -9.16895 20.4805 -20.4795v-170.667
c0 -11.3125 -9.16895 -20.4805 -20.4805 -20.4805s-20.4805 9.16797 -20.4805 20.4805v170.667c0 11.3115 9.16895 20.4795 20.4805 20.4795zM376.293 -18.8008c8.00098 -7.99414 8.00098 -20.9639 -0.000976562 -28.959c-4 -4.00098 -9.23633 -6.00098 -14.4785 -6.00098
c-5.24316 0 -10.4795 2.00098 -14.4795 6.00098l-102.4 102.399c-8.00098 7.99414 -8.00098 20.9658 0 28.959c7.99414 8.00098 20.958 8.00098 28.959 0zM481.28 147.627c11.3115 0 20.4795 -9.16895 20.4795 -20.4795c0 -11.3125 -9.16797 -20.4805 -20.4795 -20.4805
h-450.561c-11.3115 0 -20.4795 9.16797 -20.4795 20.4805c0 11.3115 9.16797 20.4795 20.4795 20.4795h450.561zM267.066 83.5986c8.00098 -7.99316 8.00098 -20.9639 -0.000976562 -28.959l-102.4 -102.399c-3.99316 -4.00098 -9.23633 -6.00098 -14.4795 -6.00098
c-5.24219 0 -10.4844 2.00098 -14.4785 6.00098c-8.00098 7.99414 -8.00098 20.9648 0 28.959l102.4 102.399c7.99316 8.00098 20.958 8.00098 28.959 0z" />
    <glyph glyph-name="uniF14D" unicode="&#xf14d;" 
d="M328.121 197.047c7.21191 -7.20703 7.21191 -18.8994 0 -26.1035l-98.4619 -98.4629c-3.45215 -3.45801 -8.1543 -5.40332 -13.0459 -5.40332h-0.0126953c-4.89746 0.00683594 -9.59961 1.95703 -13.0576 5.42871l-198.155 198.77
c-7.1875 7.21191 -7.18164 18.8857 0.0185547 26.0859l145.23 145.23c7.1875 7.19434 18.8496 7.21191 26.0615 0.0429688l95.3857 -94.7695c7.23145 -7.1875 7.27441 -18.874 0.0859375 -26.1104c-7.19434 -7.2373 -18.8799 -7.27441 -26.1113 -0.0859375l-82.3262 81.8027
l-119.188 -119.188l172.087 -172.622l85.3857 85.3848c7.21289 7.21191 18.8926 7.21191 26.1045 0zM506.614 112.727c7.1875 -7.21289 7.18066 -18.8857 -0.0253906 -26.0859l-145.231 -145.231c-3.60645 -3.60645 -8.33203 -5.40918 -13.0576 -5.40918
c-4.70703 0 -9.40918 1.78516 -13.0098 5.36035l-90.4619 89.8516c-7.23145 7.18848 -7.27441 18.875 -0.0859375 26.1113c7.18164 7.23047 18.8799 7.27441 26.1045 0.0917969l77.4102 -76.8857l119.189 119.188l-172.081 172.615l-85.3916 -85.3848
c-7.20703 -7.21191 -18.8984 -7.21191 -26.1045 0c-7.21289 7.20703 -7.21289 18.8984 0 26.1045l98.4609 98.4629c3.45801 3.46387 8.1543 5.40918 13.0518 5.40918h0.0126953c4.9043 0 9.60645 -1.95703 13.0645 -5.42871z" />
    <glyph glyph-name="uniF149" unicode="&#xf149;" 
d="M493.583 313.554c10.1719 0 18.417 -8.24512 18.416 -18.417v-331.511c0 -10.1777 -8.23828 -18.417 -18.417 -18.417h-349.928c-10.1719 0 -18.417 8.24512 -18.417 18.417v125.237h36.835v-106.82h313.093v294.676h-106.82v36.835h125.238zM368.345 438.791
c10.1729 0 18.418 -8.24414 18.417 -18.417v-331.511c0 -10.1719 -8.24512 -18.417 -18.417 -18.417h-349.928c-10.1719 0 -18.417 8.24512 -18.417 18.417v331.511c0 10.1729 8.24512 18.417 18.417 18.417h349.928zM349.928 107.281h0.000976562v294.676h-313.094
v-294.676h313.093z" />
    <glyph glyph-name="uniF12E" unicode="&#xf12e;" 
d="M385.675 188.194l27.417 -27.3164l-184.511 -185.157c-3.625 -3.63867 -8.55371 -5.69043 -13.6963 -5.69629c0 -0.00683594 -0.00683594 -0.00683594 -0.0126953 -0.00683594c-5.12891 0 -10.0576 2.03906 -13.6904 5.67188l-184.511 184.518
c-7.54785 7.54785 -7.55371 19.7803 -0.0185547 27.3408l184.511 185.158l27.4189 -27.3223l-170.873 -171.467l157.138 -157.145zM484.576 214.238c7.56055 -7.55566 7.56055 -19.8125 0 -27.374l-50.1729 -50.1729c-3.63379 -3.62598 -8.54785 -5.67188 -13.6846 -5.67188
c-5.13574 0 -10.0576 2.03906 -13.6836 5.67188l-228.097 228.085c-3.63281 3.63184 -5.67188 8.55469 -5.67188 13.6895c0 5.12891 2.03906 10.0586 5.67188 13.6846l50.1797 50.1787c3.63184 3.63184 8.55469 5.6709 13.6895 5.6709
c5.13574 0 10.0576 -2.03906 13.6836 -5.6709zM420.719 177.749l22.8057 22.8115l-200.718 200.712l-22.8115 -22.8066zM231.647 245.502c30.5918 0 55.4814 -24.8887 55.4814 -55.4824c0 -30.5928 -24.8896 -55.4883 -55.4814 -55.4883
c-30.5928 0 -55.4824 24.8896 -55.4824 55.4883c0 30.5928 24.8887 55.4824 55.4824 55.4824zM231.647 173.233c9.24316 0 16.7725 7.52832 16.7734 16.7793c0 9.25195 -7.52246 16.7744 -16.7734 16.7744c-9.25293 0 -16.7744 -7.52344 -16.7744 -16.7744
s7.5293 -16.7793 16.7744 -16.7793zM480.808 54.668c13.0195 -13.0186 20.1875 -30.4766 20.1885 -49.166c0 -18.6904 -7.16797 -36.1543 -20.1875 -49.167c-13.5488 -13.5605 -31.3604 -20.335 -49.167 -20.335c-17.8057 0 -35.6182 6.78125 -49.167 20.334
c-13.0186 13.0195 -20.1865 30.4766 -20.1865 49.167s7.16797 36.1543 20.1865 49.167l35.4834 35.4834c7.56055 7.56055 19.8057 7.56055 27.3672 0zM453.441 -16.2979c11.8125 11.8193 11.8125 31.7803 -0.000976562 43.5986l-21.7998 21.7988l-21.7988 -21.7988
c-11.8125 -11.8184 -11.8125 -31.7793 0 -43.5986c11.8193 -11.8057 31.7803 -11.8057 43.5996 0zM94.373 354.667l123.224 -123.224l-27.374 -27.373l-123.223 123.223c-21.7744 21.7744 -21.7744 57.2051 0 78.9795c21.7803 21.7734 57.2178 21.7734 78.9854 0
l57.418 -57.4189l-27.3672 -27.3662l-57.418 57.418c-6.68457 6.67676 -17.5547 6.68359 -24.2451 0c-6.68359 -6.68457 -6.68359 -17.5547 0 -24.2383z" />
    <glyph glyph-name="uniF127" unicode="&#xf127;" 
d="M492.703 448c10.6592 0 19.2969 -8.6377 19.2969 -19.2969v-139.577c0 -10.6582 -8.63867 -19.2959 -19.2969 -19.2959s-19.2959 8.6377 -19.2959 19.2959v120.281h-120.281c-10.6582 0 -19.2959 8.6377 -19.2959 19.2959c0 10.6592 8.6377 19.2969 19.2959 19.2969
h139.577zM506.346 442.346c7.53906 -7.53125 7.53906 -19.7529 0 -27.2852l-275.296 -275.296c-3.76953 -3.76855 -8.70996 -5.65332 -13.6426 -5.65332c-4.94043 0 -9.87988 1.88477 -13.6436 5.65332c-7.53906 7.53223 -7.53906 19.7529 0 27.2852l275.297 275.296
c7.53809 7.53906 19.7471 7.53906 27.2852 0zM427.096 208.08c10.6582 0 19.2959 -8.6377 19.2959 -19.2959v-233.487c0 -10.6592 -8.63184 -19.2969 -19.2959 -19.2969h-407.799c-10.6592 0 -19.2969 8.6377 -19.2969 19.2959v407.799
c0 10.6592 8.6377 19.2969 19.2969 19.2969h233.487c10.6582 0 19.2959 -8.63867 19.2959 -19.2969s-8.6377 -19.2959 -19.2959 -19.2959h-214.191v-369.206h369.206v214.191c0 10.6582 8.63965 19.2959 19.2969 19.2959z" />
    <glyph glyph-name="uniF136" unicode="&#xf136;" 
d="M379.22 443.115c6.09375 -3.49805 9.85352 -9.99121 9.85352 -17.0215v-55.5811c0 -10.835 -8.78223 -19.6172 -19.6172 -19.6172s-19.6162 8.78223 -19.6162 19.6172v21.376l-187.695 -109.815c-3.48535 -2.84473 -7.86035 -4.41406 -12.3975 -4.41406h-105.278v-171.32
h27.4639c10.835 0 19.6172 -8.78223 19.6172 -19.6172s-8.78223 -19.6172 -19.6172 -19.6172h-47.0801c-10.8359 0 -19.6172 8.78223 -19.6172 19.6172v210.555c0 10.835 8.78125 19.6172 19.6172 19.6172h119.114l215.59 126.137
c6.06836 3.54395 13.5684 3.58301 19.6631 0.0849609zM369.456 231.232c10.835 0 19.6172 -8.78125 19.6162 -19.6162v-253.713c0 -6.87891 -3.60254 -13.248 -9.4873 -16.7988c-3.11328 -1.87012 -6.61816 -2.81836 -10.1299 -2.81836
c-3.13867 0 -6.29004 0.751953 -9.16113 2.27637l-184.398 97.4238c-9.5791 5.05469 -13.2412 16.9287 -8.17969 26.5088c5.05469 9.58594 16.9287 13.2412 26.5088 8.18066l155.615 -82.2217v221.161c0 10.835 8.78125 19.6172 19.6162 19.6172zM506.782 413.258
c7.35547 -7.95117 6.87891 -20.3623 -1.0791 -27.7246l-472.762 -437.458c-3.77344 -3.49219 -8.55371 -5.21191 -13.3203 -5.21191c-5.27734 0 -10.5342 2.11133 -14.4053 6.29688c-7.35547 7.95215 -6.87207 20.3633 1.0791 27.7188l472.768 437.458
c7.95801 7.36328 20.3564 6.87207 27.7197 -1.0791zM149.093 313.623c10.835 0 19.6172 -8.78125 19.6172 -19.6162v-134.05c0 -10.835 -8.78906 -19.6172 -19.6172 -19.6172c-10.835 0 -19.6172 8.78223 -19.6172 19.6172v134.05c0 10.835 8.78223 19.6162 19.6172 19.6162
z" />
    <glyph glyph-name="uniF166" unicode="&#xf166;" 
d="M494.664 417.372c9.5752 0 17.3359 -7.75977 17.335 -17.3359v-416.071c0 -7.02148 -4.23535 -13.3545 -10.7246 -16.0244c-2.14453 -0.884766 -4.38672 -1.3125 -6.60547 -1.3125c-4.53027 0 -8.98633 1.78027 -12.3027 5.12012l-84.4863 85.0293h-380.544
c-9.5752 0 -17.3359 7.76074 -17.3359 17.3359v325.923c0 9.57617 7.76074 17.3359 17.3359 17.3359h477.328zM477.327 26.0098h0.000976562v356.69h-442.655v-291.251h370.419c4.61719 0 9.04395 -1.83789 12.2969 -5.12012zM256 293.129
c30.5928 0 55.4824 -24.8887 55.4824 -55.4756s-24.8896 -55.4766 -55.4824 -55.4766c-30.5869 0 -55.4756 24.8896 -55.4756 55.4766s24.8828 55.4756 55.4756 55.4756zM256 216.849c11.4707 0 20.8086 9.33301 20.8086 20.8047
c0 11.4707 -9.33789 20.8037 -20.8086 20.8037s-20.8037 -9.33301 -20.8037 -20.8037c0 -11.4717 9.33301 -20.8047 20.8037 -20.8047zM123.088 293.129c30.5928 0 55.4766 -24.8887 55.4766 -55.4756s-24.8896 -55.4766 -55.4766 -55.4766
s-55.4756 24.8896 -55.4756 55.4766s24.8828 55.4756 55.4756 55.4756zM123.088 216.849c11.4707 0 20.8037 9.33301 20.8037 20.8047c0 11.4707 -9.33301 20.8037 -20.8037 20.8037s-20.8037 -9.33301 -20.8037 -20.8037c0 -11.4717 9.33301 -20.8047 20.8037 -20.8047z
M388.912 293.129c30.5928 0 55.4814 -24.8887 55.4814 -55.4756s-24.8887 -55.4766 -55.4814 -55.4766c-30.5869 0 -55.4766 24.8896 -55.4766 55.4766s24.8896 55.4756 55.4766 55.4756zM388.912 216.849c11.4707 0 20.8086 9.33301 20.8086 20.8047
c0 11.4707 -9.33789 20.8037 -20.8086 20.8037c-11.4648 0 -20.8037 -9.33301 -20.8037 -20.8037c0 -11.4717 9.33301 -20.8047 20.8037 -20.8047z" />
    <glyph glyph-name="uniF120" unicode="&#xf120;" 
d="M366.587 337.418c80.1787 0 145.413 -65.2344 145.413 -145.411c0 -80.1846 -65.2344 -145.419 -145.413 -145.419h-134.415c-10.124 0 -18.3291 8.20508 -18.3291 18.3291s8.20508 18.3291 18.3291 18.3291h134.415c59.9609 0 108.754 48.7861 108.754 108.76
c0 59.9668 -48.7861 108.754 -108.754 108.754c-10.124 0 -18.3291 8.20508 -18.3291 18.3291s8.20508 18.3291 18.3291 18.3291zM256.348 64.959l70.3545 -81.5469c6.61133 -7.66797 5.75586 -19.2402 -1.90625 -25.8516
c-3.46387 -2.99316 -7.72266 -4.45312 -11.9688 -4.45312c-5.14453 0 -10.2578 2.15625 -13.8809 6.35352l-80.6494 93.4805c-5.9209 6.86035 -5.93848 17.0205 -0.0371094 23.9004l80.6553 94.0908c6.58594 7.69922 18.1641 8.57227 25.8379 1.98633
c7.68652 -6.58594 8.57812 -18.1582 1.98633 -25.8379zM279.828 337.418c10.124 0 18.3291 -8.20605 18.3291 -18.3301s-8.20508 -18.3291 -18.3291 -18.3291h-134.415c-59.9668 0 -108.754 -48.7861 -108.754 -108.754c0 -59.9727 48.7861 -108.76 108.754 -108.76
c10.124 0 18.3291 -8.20508 18.3291 -18.3291s-8.20508 -18.3291 -18.3291 -18.3291c-80.1787 0 -145.413 65.2344 -145.413 145.419c0 80.1777 65.2344 145.412 145.413 145.412h134.415zM293.71 331.058c5.91992 -6.86035 5.93848 -17.0215 0.0361328 -23.9004
l-80.6436 -94.0908c-3.62891 -4.22852 -8.7666 -6.40332 -13.9297 -6.40332c-4.22168 0 -8.46191 1.44824 -11.9199 4.41113c-7.68555 6.58594 -8.57812 18.1582 -1.99219 25.8438l70.3916 82.1279l-70.3486 81.5469c-6.61719 7.66211 -5.76172 19.2344 1.90625 25.8516
c7.66211 6.61035 19.2461 5.75586 25.8506 -1.90625z" />
    <glyph glyph-name="uniF135" unicode="&#xf135;" 
d="M301.894 411.429c11.8828 0 21.5127 -9.63086 21.5137 -21.5127v-395.115c0 -11.8828 -9.63086 -21.5127 -21.5137 -21.5127h-91.0693c-11.8828 0 -21.5137 9.63086 -21.5137 21.5127v395.115c0 11.8828 9.63184 21.5127 21.5137 21.5127h91.0693zM280.381 16.3145
v352.089h-48.0449v-352.089h48.0449zM112.583 232.874c11.8818 0 21.5117 -9.63086 21.5127 -21.5127v-217.277c0 -11.8896 -9.63086 -21.5127 -21.5127 -21.5127h-91.0703c-11.8828 0 -21.5127 9.63086 -21.5127 21.5127v217.277
c0 11.8818 9.62988 21.5127 21.5127 21.5127h91.0703zM91.0703 15.5967v174.252h-48.0449v-174.252h48.0449zM490.487 283.787c11.8828 0 21.5127 -9.62988 21.5127 -21.5117v-268.192c0 -11.8896 -9.62402 -21.5127 -21.5127 -21.5127h-91.0703
c-11.8828 0 -21.5127 9.63086 -21.5127 21.5127v268.191c0 11.8828 9.63086 21.5127 21.5127 21.5127h91.0703zM468.975 15.5967v225.165h-48.0449v-225.165h48.0449z" />
    <glyph glyph-name="uniF13B" unicode="&#xf13b;" 
d="M47.0586 192l61.9004 -61.3691c7.62207 -7.5625 7.67969 -19.8711 0.117188 -27.499c-3.79785 -3.83691 -8.80176 -5.75488 -13.8047 -5.75488c-4.95215 0 -9.89746 1.87891 -13.6885 5.63184l-75.8281 75.1807c-3.68066 3.6543 -5.75488 8.62598 -5.75488 13.8105
s2.07422 10.1562 5.75586 13.8047l75.8281 75.1807c7.62207 7.5625 19.9355 7.51074 27.499 -0.117188s7.50488 -19.9365 -0.117188 -27.499zM344.991 366.417c7.55664 -7.62793 7.50488 -19.9355 -0.123047 -27.499c-3.79199 -3.75879 -8.74316 -5.63184 -13.6885 -5.63184
c-5.00293 0 -10.0068 1.91797 -13.8105 5.75488l-61.3691 61.9004l-61.375 -61.9004c-7.55664 -7.62207 -19.8711 -7.67383 -27.499 -0.117188c-7.62207 7.56348 -7.67969 19.8711 -0.117188 27.499l75.1807 75.8281c3.6543 3.6748 8.62598 5.74902 13.8105 5.74902
s10.1562 -2.07422 13.8105 -5.75488zM344.874 45.082c7.62793 -7.56348 7.67969 -19.8711 0.124023 -27.499l-75.1797 -75.8281c-3.66211 -3.6875 -8.63379 -5.75488 -13.8184 -5.75488s-10.1562 2.06738 -13.8047 5.75488l-75.1807 75.8281
c-7.5625 7.62793 -7.50488 19.9355 0.117188 27.499c7.62793 7.54395 19.9424 7.51172 27.499 -0.123047l61.375 -61.9072l61.3691 61.9072c7.55664 7.62793 19.8643 7.67969 27.499 0.123047zM506.245 205.811c3.6875 -3.6543 5.75488 -8.62598 5.75488 -13.8105
s-2.06738 -10.1562 -5.75488 -13.8105l-75.8281 -75.1807c-3.79102 -3.75195 -8.74316 -5.63184 -13.6885 -5.63184c-5.00293 0 -10.0068 1.91797 -13.8105 5.75488c-7.55664 7.62793 -7.50488 19.9365 0.123047 27.499l61.9072 61.3691l-61.9072 61.375
c-7.62793 7.56348 -7.67969 19.8711 -0.123047 27.499c7.55664 7.62207 19.8643 7.67969 27.499 0.117188zM492.557 211.443c10.7393 0 19.4434 -8.7041 19.4434 -19.4434s-8.7041 -19.4434 -19.4434 -19.4434h-473.113c-10.7393 0 -19.4434 8.7041 -19.4434 19.4434
s8.7041 19.4434 19.4434 19.4434h473.113zM256 448c10.7393 0 19.4434 -8.7041 19.4434 -19.4434v-473.113c0 -10.7393 -8.7041 -19.4434 -19.4434 -19.4434s-19.4434 8.7041 -19.4434 19.4434v473.113c0 10.7393 8.7041 19.4434 19.4434 19.4434z" />
    <glyph glyph-name="uniF180" unicode="&#xf180;" 
d="M493.222 351.605c10.3711 0 18.7783 -8.40625 18.7773 -18.7783v-281.66c0 -10.3652 -8.40625 -18.7715 -18.7773 -18.7715h-346.13c-5.2832 0 -10.3223 2.22168 -13.8838 6.12793l-128.312 140.831c-6.52734 7.17285 -6.52734 18.125 0 25.292l128.312 140.831
c3.5625 3.90625 8.60059 6.12793 13.8838 6.12793h346.13zM474.445 69.9502h-0.000976562v244.107h-319.06l-111.2 -122.054l111.2 -122.054h319.061zM396.262 256.686c7.37988 -7.29199 7.44824 -19.1777 0.162109 -26.5576l-101.399 -102.649
c-3.67383 -3.71191 -8.52441 -5.57715 -13.3623 -5.57715c-4.76953 0 -9.53223 1.80176 -13.1943 5.41406c-7.37988 7.29199 -7.44922 19.1777 -0.163086 26.5576l101.398 102.649c7.29199 7.37988 19.1719 7.44922 26.5586 0.163086zM396.888 154.667
c7.37988 -7.29102 7.44824 -19.1777 0.155273 -26.5566c-3.66797 -3.71777 -8.51855 -5.58301 -13.3564 -5.58301c-4.76855 0 -9.53223 1.80176 -13.1943 5.41406l-102.644 101.397c-7.37891 7.29199 -7.44727 19.1777 -0.155273 26.5576
c7.27832 7.37402 19.1709 7.44922 26.5508 0.163086z" />
    <glyph glyph-name="uniF16B" unicode="&#xf16b;" 
d="M481.157 426.41c17.0068 0 30.8428 -13.8369 30.8428 -30.8438v-308.435c0 -17.0068 -13.8359 -30.8428 -30.8428 -30.8428h-152.65l-56.8564 -90.0752c-3.3877 -5.35449 -9.27246 -8.6123 -15.6074 -8.62402h-0.0429688c-6.32324 0 -12.208 3.22656 -15.6074 8.5625
l-57.4609 90.1367h-152.089c-17.0068 0 -30.8428 13.8359 -30.8428 30.8428v308.435c0 17.0068 13.8359 30.8438 30.8428 30.8438h450.314zM474.988 93.2949v296.096h-437.977v-296.09h156.067c6.32324 0 12.208 -3.22559 15.6064 -8.56152l47.2402 -74.0986
l46.7285 74.0303c3.39258 5.36719 9.30176 8.62402 15.6494 8.62402h156.685zM400.964 340.048c10.2207 0 18.5059 -8.28516 18.5059 -18.5059s-8.28516 -18.5059 -18.5059 -18.5059h-289.928c-10.2217 0 -18.5059 8.28418 -18.5059 18.5059
s8.28516 18.5059 18.5059 18.5059h289.928zM400.964 259.855c10.2207 0 18.5059 -8.28418 18.5059 -18.5068c0 -10.2207 -8.28516 -18.5059 -18.5059 -18.5059h-289.928c-10.2217 0 -18.5059 8.28516 -18.5059 18.5059c0 10.2227 8.28516 18.5068 18.5059 18.5068h289.928z
M283.759 179.663c10.2227 0 18.5059 -8.28516 18.5059 -18.5059c0 -10.2217 -8.28418 -18.5059 -18.5059 -18.5059h-172.723c-10.2217 0 -18.5059 8.28418 -18.5059 18.5059c0 10.2207 8.28516 18.5059 18.5059 18.5059h172.723z" />
    <glyph glyph-name="uniF15E" unicode="&#xf15e;" 
d="M390.595 166.233c3.20605 -5.58105 3.16406 -12.4424 -0.0830078 -17.9922l-119.021 -203.365c-3.22461 -5.49121 -9.12207 -8.87598 -15.4922 -8.87598c-6.37109 0 -12.2676 3.37891 -15.4863 8.87598l-119.027 203.365
c-3.24805 5.55078 -3.27832 12.4111 -0.078125 17.9922s9.13281 9.01953 15.5625 9.01953h238.058c6.42969 0 12.3623 -3.43848 15.5684 -9.01953zM255.997 -10.5273l87.7275 149.893h-175.462zM255.997 448c9.91113 0 17.9443 -8.0332 17.9443 -17.9443v-272.748
c0 -9.91016 -8.0332 -17.9434 -17.9443 -17.9434s-17.9443 8.0332 -17.9443 17.9434v272.748c0 9.91113 8.0332 17.9443 17.9443 17.9443z" />
    <glyph glyph-name="uniF173" unicode="&#xf173;" 
d="M472.403 448c20.6514 0 36.834 -16.1826 36.835 -36.835v-438.33c0 -20.6582 -16.1836 -36.835 -36.835 -36.835h-432.807c-20.6514 0 -36.834 16.1826 -36.834 36.834v438.331c0 20.6523 16.1826 36.835 36.834 36.835h432.807zM472.403 -27.165v438.331h-432.807
c-0.195312 0 -0.28125 -0.0253906 -0.28125 -0.0253906l0.28125 -438.306h432.807zM21.1797 258.916v36.835h469.026v-36.835h-469.026zM67.8369 353.458c0 16.2744 13.1934 29.4678 29.4678 29.4678c16.2754 0 29.4688 -13.1934 29.4688 -29.4678
s-13.1934 -29.4678 -29.4688 -29.4678c-16.2744 0 -29.4678 13.1934 -29.4678 29.4678zM143.961 353.458c0 16.2744 13.1934 29.4678 29.4678 29.4678c16.2754 0 29.4688 -13.1934 29.4688 -29.4678s-13.1934 -29.4678 -29.4688 -29.4678
c-16.2744 0 -29.4678 13.1934 -29.4678 29.4678zM401.803 371.875c10.1729 0 18.418 -8.24512 18.417 -18.417c0 -10.1719 -8.24512 -18.417 -18.417 -18.417h-127.692c-10.1719 0 -18.417 8.24512 -18.417 18.417s8.24512 18.417 18.417 18.417h127.692z" />
    <glyph glyph-name="uniF133" unicode="&#xf133;" 
d="M351.028 303.598c11.207 0 20.29 -9.08301 20.291 -20.291c0 -11.208 -9.07715 -20.291 -20.291 -20.291h-127.155c-11.208 0 -20.291 9.08398 -20.291 20.291c0 11.208 9.08398 20.291 20.291 20.291h127.155zM399.725 205.527c11.207 0 20.291 -9.08301 20.291 -20.291
s-9.08398 -20.291 -20.291 -20.291h-175.852c-11.208 0 -20.291 9.08398 -20.291 20.291c0 11.208 9.08398 20.291 20.291 20.291h175.852zM491.709 430.753c11.208 0 20.291 -9.08301 20.291 -20.291v-365.908c0 -49.9746 -40.6621 -90.6309 -90.6309 -90.6309h-334.775
c-3.32031 -0.446289 -6.7168 -0.675781 -10.166 -0.675781c-42.1436 0 -76.4277 34.2842 -76.4277 76.4277v112.951c0 42.1367 34.2842 76.4277 76.4277 76.4277h35.8467v191.408c0 11.208 9.08398 20.291 20.291 20.291h359.144zM112.275 29.6748h0.000976562v148.798
h-35.8477c-19.7627 0 -35.8467 -16.084 -35.8467 -35.8467v-112.95c0 -19.7627 16.0771 -35.8467 35.8467 -35.8467v0.675781h6.93945c16.4551 3.23926 28.9072 17.7812 28.9072 35.1699zM471.419 44.5547v345.617h-318.562v-360.497
c0 -12.6738 -3.09863 -24.6387 -8.58301 -35.1699h277.096c27.1348 0 50.0498 22.9209 50.0498 50.0498zM351.028 113.536c11.207 0 20.29 -9.08301 20.291 -20.291c0 -11.208 -9.07715 -20.291 -20.291 -20.291h-127.155c-11.208 0 -20.291 9.08398 -20.291 20.291
c0 11.208 9.08398 20.291 20.291 20.291h127.155z" />
    <glyph glyph-name="uniF172" unicode="&#xf172;" 
d="M256.589 353.839c97.3506 0 176.551 -93.7188 176.552 -208.919c0.00683594 -115.2 -79.1943 -208.92 -176.552 -208.92c-97.3506 0 -176.552 93.7188 -176.552 208.919s79.2012 208.92 176.552 208.92zM256.589 -28.6904c77.8818 0 141.241 77.877 141.241 173.61
c0.00585938 95.7266 -63.3594 173.608 -141.241 173.608s-141.241 -77.8838 -141.241 -173.609c0 -95.7324 63.3584 -173.609 141.241 -173.609zM112.405 209.656v35.3096h288.368v-35.3096h-288.368zM238.933 -46.3447v274.244h35.3105v-274.244h-35.3105zM484.34 146.685
c9.75195 0 17.6553 -7.90332 17.6553 -17.6543s-7.90332 -17.6553 -17.6553 -17.6553h-68.8486c-9.75098 0 -17.6553 7.90332 -17.6553 17.6553c0 9.75098 7.90332 17.6543 17.6553 17.6543h68.8486zM476.672 66.0068c9.4043 -2.58984 14.9189 -12.3115 12.3232 -21.709
c-2.14844 -7.82715 -9.25684 -12.9648 -17.002 -12.9648c-1.56055 0 -3.13672 0.206055 -4.70801 0.640625l-68.2676 18.832c-9.40332 2.59082 -14.918 12.3125 -12.3223 21.71c2.58398 9.4043 12.3408 14.9365 21.71 12.3232zM96.5146 146.685
c9.75098 0 17.6553 -7.90332 17.6553 -17.6543s-7.90332 -17.6553 -17.6553 -17.6553h-68.8545c-9.75098 0 -17.6553 7.90332 -17.6553 17.6553c0 9.75098 7.90332 17.6543 17.6553 17.6543h68.8545zM498.429 214.316c2.57812 -9.4043 -2.96582 -19.1152 -12.3691 -21.6865
l-68.8486 -18.832c-1.56641 -0.429688 -3.13672 -0.635742 -4.67285 -0.635742c-7.75684 0 -14.8721 5.15527 -17.0205 13c-2.57715 9.41016 2.9668 19.1201 12.3701 21.6914l68.8496 18.832c9.43848 2.58398 19.1201 -2.96582 21.6914 -12.3691zM104.118 207.848
c9.40527 -2.57031 14.9482 -12.2812 12.3711 -21.6855c-2.14355 -7.84473 -9.25781 -13 -17.0205 -13c-1.54199 0 -3.10645 0.206055 -4.66699 0.629883l-68.8545 18.832c-9.4043 2.57129 -14.9482 12.2822 -12.3701 21.6855
c2.57129 9.4043 12.2822 14.9482 21.6855 12.3701zM125.305 72.5225c2.58887 -9.40527 -2.9248 -19.1211 -12.3223 -21.7119l-68.2676 -18.832c-1.57129 -0.44043 -3.14746 -0.646484 -4.70801 -0.646484c-7.74512 0 -14.8477 5.1377 -17.0078 12.9648
c-2.58984 9.4043 2.9248 19.1211 12.3232 21.7158l68.2666 18.832c9.41602 2.60742 19.127 -2.9248 21.7158 -12.3223zM346.041 448c26.2891 0 47.6689 -21.3857 47.6689 -47.6689s-21.3799 -47.6689 -47.6689 -47.6689c-26.2832 0 -47.6689 21.3857 -47.6689 47.6689
s21.3857 47.6689 47.6689 47.6689zM346.041 387.972c6.82129 0 12.3594 5.54395 12.3594 12.3594s-5.54395 12.3594 -12.3594 12.3594s-12.3594 -5.54395 -12.3594 -12.3594s5.53809 -12.3594 12.3594 -12.3594zM340.72 312.681l-34.0742 9.25781l14.7109 54.1436
l34.0742 -9.25879zM167.136 448c26.2822 0 47.6689 -21.3857 47.6689 -47.6689s-21.3799 -47.6689 -47.6689 -47.6689c-26.2832 0 -47.6689 21.3857 -47.6689 47.6689s21.3857 47.6689 47.6689 47.6689zM167.136 387.972c6.81543 0 12.3584 5.54395 12.3594 12.3594
c0 6.81543 -5.54395 12.3594 -12.3594 12.3594c-6.81445 0 -12.3584 -5.54395 -12.3584 -12.3594s5.54395 -12.3594 12.3584 -12.3594zM172.455 312.717l-14.7119 54.1436l34.0742 9.25781l14.7119 -54.1426z" />
    <glyph glyph-name="uniF174" unicode="&#xf174;" 
d="M506.704 315.006c7.04785 -7.04199 7.05957 -18.4688 0.0302734 -25.5283l-143.962 -144.564c-3.39062 -3.39648 -7.9873 -5.3125 -12.7881 -5.31934h-0.0175781c-4.79492 0 -9.3916 1.9043 -12.7764 5.2959l-31.9248 31.9248
c-7.05957 7.05371 -7.05957 18.4971 0 25.5518c7.06055 7.05957 18.4922 7.05957 25.5518 0l19.1191 -19.1191l118.464 118.959l-102.201 102.194l-118.951 -118.458l19.125 -19.125c7.05371 -7.05371 7.05371 -18.498 0 -25.5518
c-7.06055 -7.05957 -18.5039 -7.05957 -25.5576 0l-31.9248 31.9248c-3.39258 3.3916 -5.30176 7.99902 -5.2959 12.7939c0.00683594 4.80078 1.91602 9.40332 5.31934 12.7881l144.563 143.962c7.07227 7.0293 18.4814 7.02344 25.5283 -0.0302734zM303.116 110.809
c3.39062 -3.3916 5.30078 -7.99316 5.29492 -12.7939s-1.91602 -9.40332 -5.31934 -12.7881l-144.564 -143.962c-3.53027 -3.51172 -8.14355 -5.26465 -12.7578 -5.26465c-4.62598 0 -9.25195 1.76465 -12.7764 5.29492l-127.698 127.698
c-7.04688 7.04785 -7.05859 18.4619 -0.0302734 25.5283l143.963 144.564c3.39062 3.4043 7.9873 5.3125 12.7881 5.31934h0.0175781c4.78906 0 9.3916 -1.9043 12.7764 -5.28906l31.9248 -31.9248c7.05957 -7.06055 7.05957 -18.498 0 -25.5586
c-7.06055 -7.05957 -18.5039 -7.05957 -25.5576 0l-19.125 19.1191l-118.453 -118.952l102.194 -102.201l118.959 118.458l-19.1191 19.125c-7.05957 7.05371 -7.05957 18.4912 0 25.5518c7.06055 7.05957 18.498 7.05957 25.5586 0zM451.891 21.6611
c7.05957 -7.05371 7.05957 -18.498 0 -25.5527c-3.53027 -3.5293 -8.15039 -5.29492 -12.7764 -5.29492s-9.24609 1.76562 -12.7764 5.29492l-59.6318 59.6328c-7.06055 7.05469 -7.06055 18.498 0 25.5518c7.05957 7.06055 18.4912 7.06055 25.5518 0zM490.037 109.936
c8.90918 -4.50586 12.4688 -15.3779 7.96289 -24.2812c-3.17969 -6.2832 -9.53516 -9.91504 -16.1309 -9.91504c-2.74707 0 -5.53027 0.626953 -8.15039 1.95215l-51.1992 25.9014c-8.90918 4.50586 -12.4688 15.3779 -7.96289 24.2803
c4.51172 8.90918 15.3779 12.4688 24.2803 7.96289zM370.302 -25.7266c4.50586 -8.9082 0.939453 -19.7744 -7.96289 -24.2803c-2.61426 -1.32031 -5.39746 -1.95215 -8.14453 -1.95215c-6.5957 0 -12.9502 3.63184 -16.1367 9.91504l-25.9004 51.1992
c-4.50684 8.90918 -0.94043 19.7754 7.96289 24.2812c8.90234 4.5 19.7744 0.946289 24.2803 -7.96289zM145.293 328.258c7.06055 -7.05469 7.06055 -18.499 0 -25.5518c-3.52344 -3.53027 -8.14941 -5.2959 -12.7754 -5.2959s-9.25195 1.76562 -12.7764 5.2959
l-59.6328 59.6318c-7.05957 7.05469 -7.05957 18.498 0 25.5527c7.05469 7.05957 18.498 7.05957 25.5527 0zM199.842 374.837c4.50684 -8.9082 0.94043 -19.7754 -7.96875 -24.2803c-2.61426 -1.32031 -5.40234 -1.94629 -8.14355 -1.94629
c-6.60254 0 -12.957 3.62598 -16.1367 9.91504l-25.9014 51.2002c-4.50586 8.9082 -0.94043 19.7744 7.96875 24.2803c8.90918 4.51172 19.7754 0.93457 24.2812 -7.96875zM89.4678 280.413c8.90918 -4.50684 12.4746 -15.3721 7.96875 -24.2812
c-3.17383 -6.29492 -9.53516 -9.9209 -16.1367 -9.9209c-2.74707 0 -5.52441 0.626953 -8.14453 1.95215l-51.1992 25.9004c-8.90918 4.50586 -12.4746 15.3721 -7.96875 24.2812c4.5 8.90918 15.3779 12.4805 24.2803 7.96875z" />
    <glyph glyph-name="uniF12F" unicode="&#xf12f;" 
d="M448.39 300.678c3.83398 -3.62793 6.01074 -8.67773 6.01074 -13.958v-331.52c0 -10.6055 -8.5957 -19.2002 -19.2002 -19.2002h-358.4c-10.6045 0 -19.2002 8.59473 -19.2002 19.2002v473.6c0 10.6055 8.5957 19.2002 19.2002 19.2002h208
c4.90918 0 9.61914 -1.875 13.1904 -5.24219zM416 -25.5996v304.045l-138.835 131.154h-181.165v-435.199h320zM345.6 134.4c10.6055 0 19.2002 -8.5957 19.2002 -19.2002c0 -10.6055 -8.59473 -19.2002 -19.2002 -19.2002h-185.6
c-10.6055 0 -19.2002 8.59473 -19.2002 19.2002c0 10.6045 8.59473 19.2002 19.2002 19.2002h185.6zM268.8 211.2c10.6055 0 19.2002 -8.59473 19.2002 -19.2002s-8.59473 -19.2002 -19.2002 -19.2002h-108.8c-10.6055 0 -19.2002 8.59473 -19.2002 19.2002
s8.59473 19.2002 19.2002 19.2002h108.8zM345.6 57.5996c10.6055 0 19.2002 -8.59473 19.2002 -19.1992c0 -10.6055 -8.59473 -19.2002 -19.2002 -19.2002h-185.6c-10.6055 0 -19.2002 8.59473 -19.2002 19.2002c0 10.6045 8.59473 19.1992 19.2002 19.1992h185.6z
M300.8 300.8h134.4v-38.3994h-153.601c-10.6045 0 -19.1992 8.59473 -19.1992 19.1992v147.2h38.3994v-128z" />
    <glyph glyph-name="uniF10B" unicode="&#xf10b;" 
d="M506.416 174.987c7.44531 -7.43848 7.44531 -19.5078 0 -26.9453l-206.448 -206.448c-3.72852 -3.72852 -8.60742 -5.58984 -13.4795 -5.58984c-4.87793 0 -9.75098 1.8623 -13.4727 5.58398l-251.548 251.548c-2.96094 2.95312 -4.86035 6.80273 -5.41895 10.9512
l-15.8809 118.786c-0.787109 5.88281 1.21387 11.8027 5.41895 16.002l103.541 103.541c4.19922 4.19922 10.1006 6.1875 16.002 5.41895l118.787 -15.8809c4.14844 -0.552734 7.99121 -2.45898 10.9512 -5.41895zM286.489 -17.9941l179.502 179.502l-233.521 233.508
l-103.053 13.7783l-90.2207 -90.2148l13.7783 -103.059zM203.408 343.309c7.44434 -7.43848 7.44434 -19.5068 -0.000976562 -26.9463l-67.334 -67.333c-3.72168 -3.72363 -8.60059 -5.58398 -13.4727 -5.58398c-4.87793 0 -9.75684 1.86133 -13.4727 5.58398
c-7.44531 7.43848 -7.44531 19.5068 0 26.9463l67.334 67.333c7.43848 7.44531 19.5068 7.44531 26.9463 0z" />
    <glyph glyph-name="uniF165" unicode="&#xf165;" 
d="M366.191 318.887c9.22168 0 16.6953 -7.47363 16.6963 -16.6953v-349.496c0 -9.22266 -7.47363 -16.6963 -16.6953 -16.6963c-9.22266 0 -16.6963 7.47363 -16.6963 16.6963v332.8h-332.8c-9.22266 0 -16.6963 7.47363 -16.6963 16.6963
c0 9.22168 7.47363 16.6953 16.6963 16.6953h349.495zM145.809 448c9.22168 0 16.6953 -7.47363 16.6963 -16.6963v-129.112c0 -9.22266 -7.47363 -16.6963 -16.6963 -16.6963c-9.22168 0 -16.6953 7.47363 -16.6953 16.6963v129.112
c0 9.22266 7.47363 16.6963 16.6953 16.6963zM315.548 98.5039c9.2207 0 16.6953 -7.47266 16.6953 -16.6953c0 -9.22168 -7.47461 -16.6953 -16.6963 -16.6953h-169.739c-9.22168 0 -16.6953 7.47363 -16.6953 16.6953v171.966c0 9.22168 7.47363 16.6953 16.6953 16.6953
c9.22266 0 16.6963 -7.47363 16.6963 -16.6953v-155.271h153.044zM495.304 98.5039c9.22266 0 16.6963 -7.47363 16.6963 -16.6963c0 -9.22168 -7.47363 -16.6953 -16.6963 -16.6953h-129.112c-9.22266 0 -16.6963 7.47363 -16.6963 16.6953
c0 9.22266 7.47363 16.6963 16.6963 16.6963h129.112z" />
    <glyph glyph-name="uniF17B" unicode="&#xf17b;" 
d="M256 448c32.5635 0 59.0537 -26.4922 59.0537 -59.0537c0 -32.5625 -26.4922 -59.0547 -59.0537 -59.0547s-59.0537 26.4922 -59.0537 59.0547c0 32.5615 26.4902 59.0537 59.0537 59.0537zM256 365.324c13.2461 0 23.6221 10.376 23.6221 23.6221
c0 13.0273 -10.5938 23.6221 -23.6221 23.6221s-23.6221 -10.5957 -23.6221 -23.6221c0 -13.2461 10.376 -23.6221 23.6221 -23.6221zM256 363.552c87.5947 0 158.856 -72.0566 158.855 -160.627v-100.982h-35.4326v100.982c0 69.0342 -55.3691 125.195 -123.423 125.195
s-123.423 -56.1611 -123.423 -125.195v-103.345h-35.4336v103.344c0 88.5703 71.2617 160.628 158.856 160.628zM447.926 117.296c9.78516 0 17.7158 -7.93066 17.7158 -17.7158v-81.4951c0 -9.78516 -7.93066 -17.7158 -17.7158 -17.7158h-383.852
c-9.78516 0 -17.7158 7.93066 -17.7158 17.7158v81.4951c0 9.78516 7.93066 17.7158 17.7158 17.7158h383.852zM430.21 35.8018v46.0625h-348.42v-46.0625h348.42zM302.653 18.085h35.4316c0 -45.2646 -36.8203 -82.085 -82.085 -82.085s-82.085 36.8203 -82.085 82.085
h35.4316c0 -26.1611 20.4922 -46.6533 46.6533 -46.6533s46.6533 20.498 46.6533 46.6533z" />
    <glyph glyph-name="uniF12A" unicode="&#xf12a;" 
d="M494.008 263.374c10.4248 -2.08594 17.9922 -11.0918 17.9941 -21.4102v-97.2383c0 -10.3262 -7.57324 -19.3389 -18.0029 -21.4131c-0.472656 -0.0976562 -0.946289 -0.163086 -1.42871 -0.217773l-37.5967 -4.0791
c-5.2373 -9.41895 -11.3369 -18.4756 -18.0303 -26.7539c9.70801 -28.8936 0.831055 -60.9717 -23.2441 -80.7295c-31.1865 -26.4492 -78.0898 -24.8193 -108.918 3.94434l-4.75879 4.49219c-24.3213 -3.41699 -50.0156 -2.76465 -75.1348 1.92383l-8.23438 -7.57812
c-14.4023 -13.7061 -34.5342 -21.6807 -55.041 -21.6807h-2.17285c-22.6973 0.700195 -42.8018 9.71875 -57.126 25.4121c-21.8936 23.7168 -25.4238 58.7393 -9.84961 86.873c-18.0576 26.8037 -27.5479 57.0732 -27.5479 88.1611v7.60547
c0 0.341797 0.0117188 0.678711 0.0332031 1.01562c1.16211 18.6113 6.12207 36.7705 15.167 55.502c0.102539 0.216797 0.216797 0.428711 0.326172 0.640625l7.60449 14.124c0.129883 0.234375 0.261719 0.466797 0.402344 0.701172
c35.7285 59.1357 105.599 95.875 182.346 95.875c9.63281 0 28.3789 -2.30957 36.7119 -3.40625c14.6182 7.0459 57.8594 26.7871 82.6367 26.2168h0.0107422c13.2168 0 24.1357 -9.52246 25.5859 -22.6475c0.770508 -5.29688 0.238281 -11.8477 -2.17285 -32.9795
l-1.84277 -16.5801c18.3076 -15.2383 32.8281 -32.502 43.2959 -51.4766l37.543 -4.07422c0.482422 -0.0546875 0.966797 -0.125 1.44434 -0.222656zM479.412 154.462h-0.000976562v77.79l-35.0381 3.79688c-6.48145 0.5 -10.4365 4.44922 -11.7939 5.80762
c-1.27734 1.27539 -2.33594 2.75391 -3.12402 4.37793c-9.51758 19.5127 -24.3799 37.124 -44.1807 52.3564c-0.56543 0.439453 -1.1084 0.912109 -1.61914 1.42285c-2.40723 2.42285 -5.28613 6.6709 -5.28613 13.125c0 0.602539 0.0322266 1.19922 0.103516 1.79785
l2.71582 24.4453c0.619141 5.4541 1.50977 13.249 1.97168 18.8232c-20.1699 -3.28223 -57.0127 -19.7314 -64.7803 -24.0059c-2.40723 -1.32617 -5.16602 -2.04785 -7.91504 -2.04785h-1.08594c-0.771484 0 -1.54297 0.0537109 -2.30859 0.163086
c-6.79492 0.972656 -28.0205 3.63965 -36.2656 3.63965c-65.2588 0 -124.319 -30.5674 -154.251 -79.7998l-7.22949 -13.4297c-7.00195 -14.5801 -10.8652 -28.5098 -11.8105 -42.5625v-7.07715c0 -27.0967 9.24609 -53.5625 26.7334 -76.585
c2.65039 -3.15527 4.09082 -7.05566 4.09082 -11.1465c0 -4.05957 -1.42285 -7.9375 -4.03613 -11.0879c-12.6465 -16.9492 -11.8369 -39.167 2.02637 -54.1816c8.39258 -9.19727 20.3115 -14.4502 33.6201 -14.8633l1.66797 0.00585938
c12.2227 0 24.1641 4.69824 32.7627 12.8906l13.668 12.5693c2.4707 2.3418 6.61621 4.9541 12.7822 4.9541c1.17871 0 2.35156 -0.125 3.50391 -0.379883c25.8848 -5.6875 52.6172 -6.39844 77.3232 -2.03711c0.933594 0.163086 1.88477 0.25 2.83008 0.25
c6.26367 0 10.4512 -2.70605 12.9238 -5.0957l9.6748 -9.13672c18.3613 -17.1279 47.2617 -18.3389 65.7314 -2.67773c14.6123 11.9941 19.3008 32.626 11.5439 49.5752c-2.30371 3.89453 -2.93945 8.53418 -1.72266 13.1406
c0.597656 2.77637 1.91699 5.3623 3.84668 7.49707c8.94141 9.88086 16.9102 21.5879 23.043 33.8379c0.771484 1.54297 1.78223 2.95508 2.99316 4.18262c3.51562 3.54785 7.49219 5.52051 11.832 5.8623zM117.724 283.92c6.36621 -6.3623 6.36621 -16.6836 0 -23.0449
c-13.4346 -13.4395 -31.083 -20.1592 -48.7334 -20.1592c-17.6494 0 -35.2998 6.71973 -48.7334 20.1543c-13.0645 13.0645 -20.2568 30.3711 -20.2568 48.7383s7.19238 35.6748 20.2588 48.7393c6.36133 6.36133 16.6816 6.36133 23.0488 0
c6.36133 -6.36035 6.36133 -16.6816 0 -23.0488c-6.91016 -6.9043 -10.7129 -16.0303 -10.7129 -25.6895s3.80176 -18.7852 10.707 -25.6895c14.1621 -14.1572 37.2109 -14.1621 51.3779 0c6.36133 6.36621 16.6836 6.36621 23.0439 0zM334.358 228.374
c0 8.70117 7.05371 15.7539 15.7539 15.7539c8.70117 0 15.7539 -7.05273 15.7539 -15.7539c0 -8.7002 -7.05273 -15.7539 -15.7539 -15.7539c-8.7002 0 -15.7539 7.05371 -15.7539 15.7539z" />
    <glyph glyph-name="uniF145" unicode="&#xf145;" 
d="M418.473 328.993c9.93457 0 17.9863 -8.05176 17.9863 -17.9863v-238.014c0 -9.94043 -8.05176 -17.9863 -17.9863 -17.9863h-400.486c-9.93457 0 -17.9863 8.05176 -17.9863 17.9863v238.014c0 9.93457 8.05176 17.9863 17.9863 17.9863h400.486zM400.487 90.9785
v202.043h-364.516v-202.043h364.516zM494.014 272.637c9.93457 0 17.9863 -8.05176 17.9863 -17.9854v-124.703c0 -9.94043 -8.0459 -17.9863 -17.9863 -17.9863h-75.541v35.9717h57.5557v88.7314h-57.5557v35.9717h75.541zM106.717 73.5928v237.414h35.9727v-237.414
h-35.9727z" />
    <glyph glyph-name="uniF137" unicode="&#xf137;" 
d="M125.572 131.642c53.9395 0 97.8203 -43.8809 97.8203 -97.8203c0 -53.9404 -43.8799 -97.8213 -97.8203 -97.8213c-53.9414 0 -97.8213 43.8809 -97.8213 97.8213c0 53.9395 43.8809 97.8203 97.8213 97.8203zM125.572 -22.3809
c30.9824 0 56.1943 25.2119 56.1943 56.1953c0 30.9961 -25.2109 56.2012 -56.1943 56.2012c-30.9844 0 -56.1953 -25.2109 -56.1953 -56.2012c0 -30.9844 25.2109 -56.1953 56.1953 -56.1953zM202.58 448c155.313 0 281.669 -126.668 281.67 -282.364
c0 -11.4961 -9.31738 -20.8125 -20.8135 -20.8125c-11.4951 0 -20.8125 9.31641 -20.8125 20.8125c0 66.1865 -53.8438 120.022 -120.022 120.022c-40.0928 0 -76.7656 -19.3213 -99.209 -51.9775v-199.859v0h-41.626v393.365c0 11.4961 9.31738 20.8135 20.8135 20.8135z
M322.602 327.292c25.6621 0 49.9443 -6.00879 71.5205 -16.6992c-39.9258 52.9199 -101.137 88.8574 -170.729 94.8857v-111.842c27.8838 21.583 62.4814 33.6553 99.209 33.6553z" />
    <glyph glyph-name="uniF117" unicode="&#xf117;" 
d="M225.474 448c124.33 0 225.475 -101.151 225.475 -225.474c0 -124.33 -101.145 -225.475 -225.475 -225.475c-124.322 0 -225.474 101.145 -225.474 225.475c0 124.322 101.151 225.474 225.474 225.474zM225.474 38.6768c101.373 0 183.849 82.4766 183.849 183.85
s-82.4756 183.848 -183.849 183.848s-183.848 -82.4756 -183.848 -183.849s82.4746 -183.849 183.848 -183.849zM505.902 -28.4717c8.13086 -8.12402 8.13086 -21.3066 0 -29.4307c-4.06641 -4.06445 -9.39453 -6.09766 -14.7158 -6.09766
c-5.32715 0 -10.6494 2.0332 -14.7148 6.09766l-119.328 119.328c-8.13086 8.12402 -8.13086 21.3066 0 29.4307c8.13184 8.13086 21.2998 8.13086 29.4307 0z" />
    <glyph glyph-name="uniF103" unicode="&#xf103;" 
d="M508.746 201.959c4.33789 -5.93066 4.33789 -13.9873 0 -19.9229c-4.57422 -6.25098 -113.558 -153.201 -252.749 -153.201c-139.19 0 -248.179 146.949 -252.748 153.206c-4.33203 5.93652 -4.33203 13.9873 0 19.9238c4.56934 6.25098 113.558 153.2 252.748 153.2
c139.191 0 248.175 -146.949 252.749 -153.206zM255.997 62.5928c102.75 0 191.365 97.4834 217.618 129.396c-26.2988 31.9023 -115.094 129.419 -217.618 129.419c-102.749 0 -191.364 -97.4824 -217.617 -129.396c26.2871 -31.8857 115.089 -129.419 217.617 -129.419z
M255.997 293.274c55.8428 0 101.275 -45.4326 101.275 -101.275c0 -55.8418 -45.4326 -101.274 -101.275 -101.274c-55.8418 0 -101.274 45.4326 -101.274 101.274c0 55.8428 45.4326 101.275 101.274 101.275zM255.997 124.483c37.2305 0 67.5166 30.2871 67.5166 67.5156
c0 37.2295 -30.2871 67.5166 -67.5166 67.5166c-37.2285 0 -67.5156 -30.2871 -67.5156 -67.5166c0 -37.2285 30.2861 -67.5156 67.5156 -67.5156z" />
    </font>
</defs>
</svg>
